<?xml version="1.0" standalone="no"?>
<!DOCTYPE svg PUBLIC "-//W3C//DTD SVG 1.1//EN" "http://www.w3.org/Graphics/SVG/1.1/DTD/svg11.dtd" >
<svg xmlns="http://www.w3.org/2000/svg">
<metadata></metadata>
<defs>
<font id="archivo_narrowbold" horiz-adv-x="934" >
<font-face units-per-em="2048" ascent="1638" descent="-410" />
<missing-glyph horiz-adv-x="467" />
<glyph horiz-adv-x="0" />
<glyph unicode="&#xd;" horiz-adv-x="0" />
<glyph unicode=" "  horiz-adv-x="467" />
<glyph unicode="&#x09;" horiz-adv-x="467" />
<glyph unicode="&#xa0;" horiz-adv-x="467" />
<glyph unicode="!" horiz-adv-x="559" d="M123 1405h313l-74 -1002h-167zM139 0v281h283v-281h-283z" />
<glyph unicode="&#x22;" horiz-adv-x="797" d="M92 1104v301h250v-301l-43 -270h-162zM463 1104v301h250v-301l-43 -270h-162z" />
<glyph unicode="#" d="M10 399v172h168l64 289h-152v172h191l90 398h180l-90 -398h153l91 398h180l-90 -398h127v-172h-166l-64 -289h150v-172h-189l-90 -399h-180l90 399h-154l-90 -399h-180l90 399h-129zM358 571h154l63 289h-153z" />
<glyph unicode="$" d="M68 481v8q0 5 1 9q0 4 1 8h225v-14q0 -71 33 -110t78 -52v293q-57 16 -114.5 36t-103.5 54.5t-75 88t-29 136.5q0 74 24.5 131t67.5 97.5t102 64.5t128 31v219h112v-217q67 -6 125 -29t100.5 -60t66.5 -88t24 -114q0 -17 -1.5 -31t-1.5 -16h-225q0 62 -24 99t-64 52v-264 q58 -15 119 -35t110.5 -55t81 -91.5t31.5 -144.5q0 -90 -25.5 -153t-71 -104t-108 -62t-137.5 -27v-241h-112v241q-81 7 -144 34.5t-106 71.5t-65.5 103.5t-22.5 130.5zM309 958q0 -43 26.5 -68t70.5 -42v229q-44 -14 -70.5 -44.5t-26.5 -74.5zM518 326q22 5 43.5 15.5 t37.5 26t26 38t10 51.5q0 50 -33 79.5t-84 49.5v-260z" />
<glyph unicode="%" horiz-adv-x="1493" d="M72 1059q0 106 19.5 177.5t55.5 114.5t88.5 61t118.5 18t118.5 -18t89 -61t56 -114.5t19.5 -177.5q0 -107 -19.5 -178t-56 -113.5t-89 -60t-118.5 -17.5t-118.5 18t-88.5 60.5t-55.5 113.5t-19.5 177zM233 0l857 1405h176l-858 -1405h-175zM254 1044q0 -45 4 -82.5 t15 -64.5t30.5 -42t50.5 -15t50.5 15t30.5 42t15.5 64.5t4.5 82.5v31q0 45 -4.5 83t-15.5 65t-30.5 42t-50.5 15t-50.5 -15t-30.5 -42t-15 -65t-4 -83v-31zM858 344q0 107 19.5 178.5t56 114t89 60.5t118.5 18t118.5 -18t88.5 -60.5t55.5 -114t19.5 -178.5t-19.5 -178 t-55.5 -113.5t-88.5 -60t-118.5 -17.5t-118.5 18t-89 60.5t-56 113.5t-19.5 177zM1040 330q0 -45 4 -83t15.5 -65t31 -42t50.5 -15t50.5 15t30.5 42t15 65t4 83v30q0 45 -4 83t-15 65t-30.5 42t-50.5 15t-50.5 -15t-31 -42t-15.5 -65t-4 -83v-30z" />
<glyph unicode="&#x26;" horiz-adv-x="1212" d="M74 377q0 70 18 126t50 99t76 72.5t95 46.5v8q-45 22 -83.5 51t-67 67t-44.5 86.5t-16 110.5q0 94 34 166t95.5 121t148 74t191.5 25q99 0 182 -27.5t142 -78t92 -121.5t33 -159v-57h-246v39q0 99 -52.5 148t-154.5 49q-99 0 -154 -50.5t-55 -138.5q0 -51 15 -91 t41.5 -68t63.5 -43t81 -15h84v-207h-78q-47 0 -89.5 -10t-75 -34.5t-51.5 -67.5t-19 -109q0 -106 61 -156.5t164 -50.5q111 0 165 54.5t54 154.5v426h408v-207h-162v-213q0 -96 -30.5 -174t-89.5 -133t-147 -85t-202 -30q-105 0 -192.5 27.5t-150.5 79.5t-98.5 126.5 t-35.5 168.5z" />
<glyph unicode="'" horiz-adv-x="399" d="M76 1104v301h250v-301l-43 -270h-162z" />
<glyph unicode="(" horiz-adv-x="559" d="M61 590q0 126 20 249.5t59 239.5t96 223.5t131 202.5h161q-51 -94 -95 -203t-76.5 -226.5t-51 -239.5t-18.5 -242t18.5 -243t51 -241.5t76.5 -228t95 -203.5h-161q-74 94 -131 201.5t-96 223t-59 238.5t-20 249z" />
<glyph unicode=")" horiz-adv-x="559" d="M31 -322q51 94 95 203.5t76.5 228t51 241.5t18.5 243t-18.5 242t-51 239.5t-76.5 226.5t-95 203h162q73 -95 130 -202.5t96 -223.5t59 -239.5t20 -249.5t-20 -249t-59 -238.5t-96 -223t-130 -201.5h-162z" />
<glyph unicode="*" horiz-adv-x="653" d="M16 1006l191 86l-191 90l80 135l172 -121l-20 209h160l-21 -207l172 119l80 -135l-190 -90l190 -86l-80 -140l-172 123l21 -209h-160l20 209l-172 -123z" />
<glyph unicode="+" horiz-adv-x="981" d="M68 416v213h315v418h211v-418h317v-213h-317v-416h-211v416h-315z" />
<glyph unicode="," horiz-adv-x="467" d="M92 0v281h283v-256l-135 -344h-148l113 319h-113z" />
<glyph unicode="-" horiz-adv-x="559" d="M33 432v242h493v-242h-493z" />
<glyph unicode="." horiz-adv-x="467" d="M92 0v281h283v-281h-283z" />
<glyph unicode="/" horiz-adv-x="467" d="M2 -100l291 1605h174l-289 -1605h-176z" />
<glyph unicode="0" d="M61 702q0 214 27.5 355t80 223.5t128 116t170.5 33.5q94 0 169.5 -33.5t127.5 -116t80 -223.5t28 -355t-28 -354.5t-80 -223t-127.5 -116t-169.5 -33.5q-95 0 -170.5 33.5t-128 116t-80 223t-27.5 354.5zM317 631q0 -115 6 -199.5t22.5 -140t45.5 -82.5t76 -27t76 27 t45.5 82.5t22 140t5.5 199.5v143q0 115 -5.5 199.5t-22 140t-45.5 82.5t-76 27t-76 -27t-45.5 -82.5t-22.5 -140t-6 -199.5v-143z" />
<glyph unicode="1" d="M80 1083v164q43 5 99 18.5t116 34.5t119 47.5t108 57.5h121v-1198h289v-207h-850v207h315v876h-317z" />
<glyph unicode="2" d="M68 0v49q0 82 23 154t61 136.5t86.5 123.5t99.5 115.5t99.5 113t86.5 116t61 123.5t23 136q0 25 -6 51.5t-20.5 49t-39.5 37t-63 14.5t-65 -17.5t-44 -46.5t-24.5 -67.5t-7.5 -81.5v-84h-252q-2 10 -3 22q-3 21 -3 60q0 113 33 193.5t89.5 132.5t130.5 76t156 24 q78 0 147 -21t120 -65t80.5 -113t29.5 -166q0 -93 -30.5 -179t-78 -165t-105 -149.5t-112 -132.5t-99.5 -115t-66 -95h497v-229h-804z" />
<glyph unicode="3" d="M51 397v37h256v-43q0 -100 39 -154.5t117 -54.5q69 0 111 50.5t42 156.5q0 66 -13.5 109t-37 67.5t-53.5 34.5t-63 10h-68v207h72q29 0 54.5 13.5t44 40.5t29.5 68t11 95q0 99 -34.5 144t-94.5 45q-63 0 -97 -49t-34 -148v-39h-256v57q0 88 28.5 159t79.5 121.5t122 78 t155 27.5q87 0 158 -25t122 -74t79 -121t28 -166q0 -62 -14 -110.5t-38 -86.5t-57.5 -67t-72.5 -51v-8q44 -17 82 -46.5t65.5 -72.5t43 -99t15.5 -126q0 -94 -30 -168.5t-83.5 -126.5t-128 -79.5t-163.5 -27.5q-101 0 -178.5 30t-130 85t-80 133t-27.5 174z" />
<glyph unicode="4" d="M16 317v197q55 97 106 208.5t96 230t83.5 239.5t69.5 238h245q-19 -91 -50 -186t-67.5 -186.5t-76 -176t-76 -154.5t-67.5 -122.5t-50 -80.5h293v316q20 40 40 89t38.5 100.5t33.5 101t25 90.5h109v-697h143v-207h-143v-317h-246v317h-506z" />
<glyph unicode="5" d="M61 436h256q0 -58 10.5 -105.5t31 -81t49.5 -51.5t67 -18q35 0 64 17.5t50 52.5t32.5 87.5t11.5 121.5q0 61 -11 108.5t-30.5 80t-45.5 49t-57 16.5q-56 0 -92 -34t-59 -85l-238 33l47 778h680v-229h-462l-21 -332q31 25 79 47t122 22q71 0 133.5 -27.5t109 -83.5 t73 -141.5t26.5 -201.5t-28.5 -206t-82 -152t-130 -94t-171.5 -32q-94 0 -170.5 32t-130.5 91.5t-83.5 145t-29.5 192.5z" />
<glyph unicode="6" d="M61 662q0 219 27.5 366.5t80 237t128 127t170.5 37.5q97 0 167 -35t115 -96t66 -145t21 -181h-252q0 118 -27.5 184t-97.5 66q-48 0 -75.5 -32t-42.5 -90.5t-20 -142t-6 -186.5q35 53 92 82t125 29q85 0 149 -34t106.5 -95t63.5 -144t21 -180q0 -105 -29 -189 t-80.5 -143.5t-122.5 -91t-155 -31.5q-99 0 -177.5 34t-133.5 114t-84 212t-29 327zM330 430q0 -53 9 -98.5t27 -78.5t45 -52t64 -19t64 19t44.5 52t26 78.5t8.5 98.5q0 56 -8.5 102.5t-26 79.5t-44.5 51.5t-64 18.5t-64 -18.5t-45 -51.5t-27 -79.5t-9 -102.5z" />
<glyph unicode="7" d="M47 1176v229h840v-166q-46 -70 -95 -151t-95 -171t-86.5 -188t-71 -201t-48.5 -209.5t-18 -214.5v-48q0 -11 0.5 -24.5t1.5 -31.5h-272q0 169 35 334t93.5 316.5t133.5 285t156 240.5h-574z" />
<glyph unicode="8" d="M61 385q0 114 43 201t138 135q-78 51 -115 134t-37 183q0 81 23.5 152t71 124.5t118 84.5t164.5 31t164.5 -31t117.5 -84.5t71 -124.5t24 -152q0 -100 -38 -183t-116 -134q97 -48 139.5 -134.5t42.5 -201.5q0 -84 -23 -159t-72 -130.5t-125.5 -88t-184.5 -32.5 t-184.5 32.5t-126 88t-72.5 130.5t-23 159zM315 397q0 -106 39 -161.5t113 -55.5t112.5 55.5t38.5 161.5q0 107 -38.5 163t-112.5 56t-113 -56t-39 -163zM340 1022q0 -100 32.5 -151.5t94.5 -51.5t95.5 51.5t33.5 151.5t-33.5 151.5t-95.5 51.5t-94.5 -51.5t-32.5 -151.5z " />
<glyph unicode="9" d="M61 975q0 105 29 189t81 143.5t123 91t155 31.5q99 0 177.5 -34t133 -114t83.5 -212t29 -327q0 -219 -27.5 -366.5t-79.5 -237t-127.5 -127t-170.5 -37.5q-98 0 -167.5 35t-114.5 96t-66 144.5t-21 181.5h252q0 -59 6.5 -105.5t21 -78.5t38.5 -49t59 -17q48 0 75.5 32 t42 90.5t19 142t6.5 186.5q-35 -53 -91.5 -82t-125.5 -29q-85 0 -149 34t-106.5 95t-63.5 143.5t-21 180.5zM315 975q0 -56 8.5 -102.5t26.5 -79.5t45 -51.5t64 -18.5t64 18.5t45 51.5t27 79.5t9 102.5q0 53 -9 98.5t-27 78.5t-45 52t-64 19t-64 -19t-45 -52t-26.5 -78.5 t-8.5 -98.5z" />
<glyph unicode=":" horiz-adv-x="559" d="M113 0v281h282v-281h-282zM113 797v280h282v-280h-282z" />
<glyph unicode=";" horiz-adv-x="559" d="M111 0v281h282v-256l-135 -344h-147l112 319h-112zM113 797v280h282v-280h-282z" />
<glyph unicode="&#x3c;" horiz-adv-x="981" d="M70 403v261l843 423v-241l-637 -311l637 -312v-241z" />
<glyph unicode="=" horiz-adv-x="981" d="M68 197v211h843v-211h-843zM68 631v213h843v-213h-843z" />
<glyph unicode="&#x3e;" horiz-adv-x="981" d="M70 -18v241l637 312l-637 311v241l843 -423v-261z" />
<glyph unicode="?" horiz-adv-x="1026" d="M96 1012q0 86 27 162t81.5 133t136 90t191.5 33q91 0 164.5 -27t125 -75t79 -115t27.5 -148q0 -91 -19 -154.5t-47.5 -110.5t-61.5 -83.5t-61.5 -73.5t-47.5 -79.5t-19 -102.5v-58h-258v89q0 61 18 107.5t45.5 85.5t59 75t59 76.5t45.5 90t18 115.5q0 15 -4.5 43.5 t-19.5 56t-43 48t-76 20.5q-51 0 -82.5 -23t-48 -56t-22 -70.5t-5.5 -65.5v-22q0 -10 1 -18q0 -9 1 -15h-258q-2 14 -3 27q-2 11 -2.5 23t-0.5 22zM403 0v281h283v-281h-283z" />
<glyph unicode="@" horiz-adv-x="1638" d="M51 537q0 163 29 293t81.5 229t125.5 169.5t161 115t188.5 65.5t207.5 21q160 0 296.5 -43.5t236.5 -137t156 -240t56 -352.5q0 -116 -18.5 -206.5t-49.5 -158.5t-72 -115t-86 -76.5t-92 -42.5t-89 -13q-51 0 -86 9.5t-59.5 26.5t-40.5 40.5t-27 52.5h-11 q-21 -30 -43.5 -54t-51 -40.5t-65.5 -25.5t-85 -9q-35 0 -77.5 11t-80 41.5t-63 84t-25.5 137.5q0 99 36 165t100 105.5t153 56t196 16.5v102q0 25 -4 47t-15 38.5t-31 26t-52 9.5q-35 0 -57.5 -9.5t-35.5 -24.5t-18.5 -33t-5.5 -36v-26h-217q-2 8 -2 17v24q0 60 23.5 110 t66.5 85.5t104 55t136 19.5q170 0 252 -76t82 -213v-467q0 -42 16 -60t45 -18q35 0 71 21.5t65 71t47 131.5t18 202q0 167 -44 286t-123 195.5t-189 112t-242 35.5q-149 0 -267.5 -46.5t-201.5 -140t-127.5 -235t-44.5 -331.5q0 -352 140.5 -529.5t436.5 -177.5q34 0 79.5 5 t92 14t88 21t68.5 26v-152q-32 -12 -75 -22.5t-88.5 -17.5t-89 -11t-75.5 -4q-168 0 -302.5 49.5t-229 153.5t-145 264.5t-50.5 382.5zM696 340q0 -50 26 -79.5t83 -29.5q40 0 68 17t45.5 46.5t25.5 68t8 81.5v56q-49 0 -95 -7t-82 -25t-57.5 -49t-21.5 -79z" />
<glyph unicode="A" horiz-adv-x="1212" d="M0 0l453 1405h305l452 -1405h-268l-86 276h-518l-84 -276h-254zM410 510h374l-141 469q-8 28 -16 61t-13 62q-7 33 -12 67h-8q-6 -37 -13 -71q-6 -29 -13 -62t-15 -57z" />
<glyph unicode="B" horiz-adv-x="1212" d="M123 0v1405h604q83 0 153 -25.5t121 -71t80 -109.5t29 -142q0 -61 -16.5 -112.5t-45.5 -92t-68.5 -70t-84.5 -45.5v-8q52 -16 97.5 -48t79 -77t52.5 -102.5t19 -124.5q0 -89 -33.5 -158.5t-90.5 -118.5t-132.5 -74.5t-159.5 -25.5h-604zM385 233h299q41 0 75.5 11.5 t60 34t40 55.5t14.5 76q0 40 -12.5 75.5t-37.5 62t-63 41.5t-89 15h-287v-371zM385 836h270q47 0 82 14t58.5 37.5t35 55t11.5 67.5q0 80 -48 120.5t-126 40.5h-283v-335z" />
<glyph unicode="C" horiz-adv-x="1212" d="M70 702q0 186 37.5 323t109.5 227t176 134t236 44q110 0 204.5 -32t163.5 -98.5t108.5 -170t39.5 -246.5h-268q0 81 -18 141.5t-51 100.5t-78.5 59.5t-100.5 19.5q-73 0 -127.5 -31t-90.5 -89t-53.5 -141.5t-17.5 -188.5v-103q0 -105 18 -188.5t55 -141.5t93 -89t131 -31 q57 0 103.5 19.5t79.5 59t51 99.5t18 141h256q0 -138 -39 -240.5t-108 -170t-163.5 -101t-205.5 -33.5q-132 0 -236 44t-176 134t-109.5 226.5t-37.5 322.5z" />
<glyph unicode="D" horiz-adv-x="1212" d="M123 0v1405h457q131 0 235.5 -43t177 -128.5t111.5 -213t39 -297.5q0 -180 -39 -315.5t-111.5 -226t-177 -136t-235.5 -45.5h-457zM385 233h170q73 0 131.5 27.5t100 82t63.5 137t22 192.5v102q0 99 -22 173.5t-63.5 124t-100 74.5t-131.5 25h-170v-938z" />
<glyph unicode="E" horiz-adv-x="1120" d="M123 0v1405h895v-234h-633v-335h543v-234h-543v-369h645v-233h-907z" />
<glyph unicode="F" horiz-adv-x="1026" d="M123 0v1405h825v-234h-563v-354h481v-233h-481v-584h-262z" />
<glyph unicode="G" horiz-adv-x="1307" d="M70 702q0 186 40 323t116 227t187 134t253 44q106 0 203 -33.5t171 -99t118 -162t44 -222.5h-268q0 72 -22 126t-59.5 91t-88 55.5t-107.5 18.5q-82 0 -142 -31t-99 -89t-57.5 -141.5t-18.5 -188.5v-103q0 -107 19 -191t58.5 -141.5t99.5 -87.5t142 -30q60 0 110.5 24 t87 68t57 106.5t20.5 139.5h-316v225h584v-764h-170l-45 156q-68 -90 -165.5 -135.5t-209.5 -45.5q-129 0 -230 43.5t-170 133t-105.5 226.5t-36.5 324z" />
<glyph unicode="H" horiz-adv-x="1212" d="M123 0v1405h262v-569h442v569h263v-1405h-263v602h-442v-602h-262z" />
<glyph unicode="I" horiz-adv-x="467" d="M102 0v1405h263v-1405h-263z" />
<glyph unicode="J" d="M18 334v108h261v-88q0 -74 34.5 -113.5t102.5 -39.5q66 0 99.5 39.5t33.5 113.5v1051h262v-1071q0 -177 -101.5 -268t-293.5 -91q-191 0 -294.5 91.5t-103.5 267.5z" />
<glyph unicode="K" horiz-adv-x="1212" d="M123 0v1405h264v-719l514 719h293l-416 -571l428 -834h-295l-305 627l-219 -269v-358h-264z" />
<glyph unicode="L" horiz-adv-x="1026" d="M123 0v1405h262v-1159h594v-246h-856z" />
<glyph unicode="M" horiz-adv-x="1399" d="M109 0v1405h368l174 -774q4 -17 8.5 -40t9 -48.5t9.5 -53t9 -52.5q10 -60 20 -124h8q8 67 16 128q3 26 7 53t8 52.5t8 47.5t8 37l172 774h356v-1405h-241v895q0 23 1.5 61.5t3.5 74.5q2 42 5 89h-8l-246 -1120h-227l-248 1120h-8q2 -49 5 -92q1 -18 1.5 -37.5t1.5 -37.5 t1.5 -33t0.5 -25v-895h-223z" />
<glyph unicode="N" horiz-adv-x="1212" d="M123 0v1405h231l434 -774q8 -14 19.5 -36t21.5 -43q11 -25 23 -52l6 6q-1 27 -1 50q-1 20 -1 39v28v782h234v-1405h-234l-434 774q-6 11 -16.5 32.5t-21.5 43.5q-12 26 -26 55l-8 -6q1 -23 2 -45q1 -19 1.5 -38.5t0.5 -33.5v-782h-231z" />
<glyph unicode="O" horiz-adv-x="1307" d="M70 702q0 186 40 323t115.5 227t183.5 134t244 44t244.5 -44t184 -134t115.5 -227t40 -323t-40 -322.5t-115.5 -226.5t-184 -134t-244.5 -44t-244 44t-183.5 134t-115.5 226.5t-40 322.5zM340 651q0 -105 19.5 -188.5t58.5 -141.5t98 -89t137 -31t137 31t98.5 89 t59 141.5t19.5 188.5v103q0 105 -19.5 188.5t-59 141.5t-98.5 89t-137 31t-137 -31t-98 -89t-58.5 -141.5t-19.5 -188.5v-103z" />
<glyph unicode="P" horiz-adv-x="1120" d="M123 0v1405h502q109 0 191 -31.5t137.5 -88t83.5 -134t28 -168.5q0 -99 -31.5 -180t-89.5 -138t-139 -88.5t-180 -31.5h-240v-545h-262zM385 776h213q96 0 146.5 55t50.5 152q0 87 -51.5 137.5t-145.5 50.5h-213v-395z" />
<glyph unicode="Q" horiz-adv-x="1307" d="M70 702q0 186 40 323t115.5 227t183.5 134t244 44t244.5 -44t184 -134t115.5 -227t40 -323q0 -264 -80.5 -429t-224.5 -238l270 -289h-321l-203 229h-25q-136 0 -244 44t-183.5 134t-115.5 226.5t-40 322.5zM340 651q0 -105 19.5 -188.5t58.5 -141.5t98 -89t137 -31 t137 31t98.5 89t59 141.5t19.5 188.5v103q0 105 -19.5 188.5t-59 141.5t-98.5 89t-137 31t-137 -31t-98 -89t-58.5 -141.5t-19.5 -188.5v-103z" />
<glyph unicode="R" horiz-adv-x="1212" d="M123 0v1405h588q106 0 186.5 -30t134.5 -83.5t81.5 -127t27.5 -160.5q0 -64 -16.5 -120t-47 -102t-74 -81.5t-98.5 -57.5l271 -643h-285l-234 586h-272v-586h-262zM385 817h289q96 0 140 49.5t44 137.5q0 77 -41.5 122t-132.5 45h-299v-354z" />
<glyph unicode="S" horiz-adv-x="1120" d="M61 412q0 12 1 24.5t1 20.5h273q0 -3 -1 -14t-1 -19q0 -50 15 -91t44 -70.5t70.5 -45.5t95.5 -16q59 0 100 14.5t66 38t36 53t11 60.5q0 50 -19 85.5t-52 61t-76.5 44t-92.5 35t-101 33.5t-101 39.5t-92.5 53.5t-76.5 74.5t-52 103t-19 139.5q0 100 38.5 174t103 123 t149.5 73t178 24q94 0 177 -24t145 -74.5t98.5 -129t36.5 -186.5v-25h-268v19q0 89 -50.5 141.5t-140.5 52.5q-96 0 -146.5 -42t-50.5 -107q0 -53 29.5 -87.5t77.5 -59t109 -43t125 -40.5t125 -51.5t109 -75t77.5 -112.5t29.5 -164q0 -121 -36.5 -206t-102 -138.5 t-156.5 -78t-200 -24.5q-97 0 -185 27.5t-155 82.5t-106.5 137t-39.5 190z" />
<glyph unicode="T" horiz-adv-x="1026" d="M35 1171v234h958v-234h-348v-1171h-262v1171h-348z" />
<glyph unicode="U" horiz-adv-x="1212" d="M125 440v965h262v-956q0 -122 57 -185t162 -63t163 63t58 185v956h263v-965q0 -114 -33.5 -201t-96 -145.5t-152 -88.5t-202.5 -30t-202 30t-151 88.5t-95 145.5t-33 201z" />
<glyph unicode="V" horiz-adv-x="1120" d="M0 1405h270l295 -1006h8l291 1006h256l-428 -1405h-264z" />
<glyph unicode="W" horiz-adv-x="1585" d="M0 1405h260l168 -864q5 -23 9.5 -57t8.5 -65q4 -37 9 -75h8q4 39 8 76q4 32 8.5 65t9.5 56l170 864h297l168 -864q4 -21 9 -54.5t9 -65.5q4 -37 9 -77h8l8 72q4 30 8.5 64.5t10.5 60.5l172 864h225l-305 -1405h-264l-191 895q-6 27 -11 61t-9 65q-4 36 -8 73h-9 q-6 -40 -10 -77q-5 -32 -9 -66t-9 -56l-189 -895h-264z" />
<glyph unicode="X" horiz-adv-x="1120" d="M0 0l397 737l-360 668h293l235 -459h8l236 459h272l-362 -664l399 -741h-291l-274 530h-8l-273 -530h-272z" />
<glyph unicode="Y" horiz-adv-x="1120" d="M0 1405h276l287 -617h8l285 617h264l-428 -875v-530h-262v530z" />
<glyph unicode="Z" horiz-adv-x="1026" d="M33 0v100l577 1071h-534v234h893v-102l-578 -1070h592v-233h-950z" />
<glyph unicode="[" horiz-adv-x="559" d="M100 -330v1835h408v-194h-170v-1446h170v-195h-408z" />
<glyph unicode="\" horiz-adv-x="467" d="M2 1505h174l291 -1605h-176z" />
<glyph unicode="]" horiz-adv-x="559" d="M51 -135h170v1446h-170v194h408v-1835h-408v195z" />
<glyph unicode="^" horiz-adv-x="981" d="M66 602l319 803h219l322 -803h-226l-206 553l-203 -553h-225z" />
<glyph unicode="_" d="M0 -129h932v-141h-932v141z" />
<glyph unicode="`" horiz-adv-x="559" d="M43 1475l2 6h246l176 -271h-203z" />
<glyph unicode="a" d="M29 279q0 109 39.5 181t110 115.5t169 61.5t215.5 18v113q0 28 -4.5 52t-16.5 42t-34 28.5t-57 10.5q-38 0 -63 -10.5t-39.5 -26.5t-20.5 -36.5t-6 -39.5v-30h-240q-2 9 -2 20v25q0 67 26 122.5t73.5 94.5t114.5 60.5t150 21.5q187 0 277 -83.5t90 -234.5v-530 q0 -38 18 -55t39 -17h50v-174q-20 -11 -55 -22t-91 -11q-74 0 -123 39.5t-67 102.5h-11q-23 -32 -48 -58.5t-57 -45t-72.5 -28.5t-94.5 -10q-38 0 -84.5 12.5t-88 46t-69.5 92.5t-28 153zM281 301q0 -56 28.5 -88.5t91.5 -32.5q44 0 74.5 19t50 51.5t28.5 75t9 90.5v61 q-54 0 -104.5 -8t-90 -28t-63.5 -54t-24 -86z" />
<glyph unicode="b" horiz-adv-x="1026" d="M113 0v1481h245v-514h11q29 65 93.5 100t145.5 35q72 0 133 -32.5t105.5 -101t70 -174.5t25.5 -253t-24 -253.5t-69 -176t-109 -103t-144 -33.5q-77 0 -140 40t-104 118h-10l-25 -133h-204zM358 500q0 -146 37.5 -223.5t126.5 -77.5t126.5 77.5t37.5 223.5v78 q0 145 -37.5 223t-126.5 78q-45 0 -76 -20.5t-50.5 -59.5t-28.5 -96t-9 -130v-73z" />
<glyph unicode="c" d="M84 539q0 290 99.5 426.5t299.5 136.5q86 0 156 -25t119 -77.5t75.5 -133.5t26.5 -194h-252q0 114 -31 168.5t-94 54.5q-78 0 -110.5 -81t-32.5 -236v-78q0 -155 34.5 -236.5t117.5 -81.5q66 0 95 56t29 168h244q0 -113 -26 -194.5t-74 -134t-116 -77.5t-152 -25 q-105 0 -182 33.5t-127.5 103t-74.5 176t-24 251.5z" />
<glyph unicode="d" horiz-adv-x="1026" d="M84 541q0 147 25.5 253t70 174.5t105.5 101t133 32.5q81 0 145.5 -35t93.5 -100h11v514h245v-1481h-204l-25 133h-10q-40 -78 -103.5 -118t-140.5 -40q-80 0 -144 33.5t-109 103t-69 176t-24 253.5zM340 500q0 -146 37.5 -223.5t126.5 -77.5t126.5 77.5t37.5 223.5v73 q0 73 -9 130t-28.5 96t-50.5 59.5t-76 20.5q-89 0 -126.5 -78t-37.5 -223v-78z" />
<glyph unicode="e" d="M63 539q0 290 107 426.5t307 136.5q195 0 292 -136.5t97 -426.5v-62h-547q1 -72 10.5 -128t29 -94.5t50.5 -58.5t76 -20q63 0 100.5 54t37.5 151h243q0 -104 -28.5 -180.5t-79.5 -126.5t-121 -74.5t-152 -24.5q-207 0 -314.5 137t-107.5 427zM322 655h286 q0 118 -31.5 182t-99.5 64q-78 0 -113.5 -64t-41.5 -182z" />
<glyph unicode="f" horiz-adv-x="559" d="M18 870v207h109v131q0 54 12 106t41 92.5t78 65.5t123 25q21 0 46 -2t49 -5.5t46 -8t37 -8.5v-183h-100q-86 0 -86 -88v-125h186v-207h-186v-870h-246v870h-109z" />
<glyph unicode="g" horiz-adv-x="1026" d="M33 -125q0 80 39 133.5t98 85.5q-40 25 -63 65.5t-23 96.5q0 35 12.5 64.5t34 53.5t50.5 41.5t61 28.5q-65 48 -98 121.5t-33 169.5q0 83 25.5 150.5t76 115.5t124.5 74.5t171 26.5q51 0 96.5 -7.5t83.5 -23.5q31 22 51 48.5t32 52.5t17 48.5t5 36.5h202q0 -115 -46 -182 t-128 -92q42 -46 64 -109t22 -139q0 -83 -26 -150.5t-76 -115.5t-125 -74t-172 -26h-102q-33 0 -53.5 -19t-20.5 -47t17.5 -45.5t45.5 -17.5h373q51 0 95.5 -19.5t78 -56.5t53 -89t19.5 -116q0 -75 -27.5 -136.5t-74.5 -105t-110.5 -67t-135.5 -23.5h-396q-49 0 -92 18 t-75.5 51t-51 78.5t-18.5 100.5zM281 -86q0 -46 28 -73t70 -27h276q47 0 79 27t32 73t-29 72t-71 26h-287q-21 0 -38.5 -8t-31 -21.5t-21 -31t-7.5 -37.5zM356 735q0 -86 38.5 -135t113.5 -49q77 0 115.5 49t38.5 135q0 87 -38.5 136t-115.5 49q-75 0 -113.5 -49t-38.5 -136 z" />
<glyph unicode="h" horiz-adv-x="1026" d="M113 0v1481h245v-518h9q18 25 43 50t57 44.5t72 32t88 12.5q62 0 114.5 -18.5t90.5 -59.5t59.5 -107t21.5 -161v-756h-245v688q0 104 -38 147.5t-104 43.5q-36 0 -67 -16.5t-53.5 -46t-35 -68.5t-12.5 -84v-664h-245z" />
<glyph unicode="i" horiz-adv-x="467" d="M111 0v1077h245v-1077h-245zM111 1257v224h245v-224h-245z" />
<glyph unicode="j" horiz-adv-x="467" d="M-76 -166h90q48 0 72.5 25t24.5 73v1145h245v-1161q0 -54 -11.5 -105.5t-40 -92.5t-76.5 -66t-122 -25q-23 0 -48 2t-49.5 6t-46.5 8t-38 9v182zM111 1257v224h245v-224h-245z" />
<glyph unicode="k" d="M111 0v1481h245v-832l301 428h263l-320 -438l336 -639h-272l-218 446l-90 -110v-336h-245z" />
<glyph unicode="l" horiz-adv-x="467" d="M111 0v1481h245v-1481h-245z" />
<glyph unicode="m" horiz-adv-x="1493" d="M113 0v1077h204l25 -133h12q19 31 45 60t58 50.5t70.5 34.5t82.5 13q81 0 140.5 -36.5t91.5 -121.5q21 31 48.5 60t62.5 50.5t77 34.5t90 13q58 0 106.5 -17.5t84 -58t55.5 -107t20 -163.5v-756h-245v688q0 104 -30 147.5t-91 43.5q-30 0 -57 -14.5t-48 -40.5t-33 -62.5 t-12 -81.5v-680h-241v688q0 104 -31 147.5t-92 43.5q-32 0 -59 -15.5t-46.5 -44t-31 -68t-11.5 -87.5v-664h-245z" />
<glyph unicode="n" horiz-adv-x="1026" d="M113 0v1077h204l25 -133h12q21 31 48 60t61 50.5t75 34.5t89 13q62 0 114.5 -18.5t90.5 -59.5t59.5 -107t21.5 -161v-756h-245v688q0 104 -38 147.5t-104 43.5q-36 0 -67 -16.5t-53.5 -46t-35 -68.5t-12.5 -84v-664h-245z" />
<glyph unicode="o" horiz-adv-x="1026" d="M84 539q0 290 107.5 426.5t322.5 136.5t322.5 -136.5t107.5 -426.5t-107.5 -427t-322.5 -137t-322.5 137t-107.5 427zM340 500q0 -155 39.5 -236.5t134.5 -81.5t134.5 81.5t39.5 236.5v78q0 154 -39.5 235.5t-134.5 81.5t-134.5 -81.5t-39.5 -235.5v-78z" />
<glyph unicode="p" horiz-adv-x="1026" d="M113 -354v1431h204l25 -133h10q41 79 104 118.5t140 39.5q80 0 144 -33.5t109 -102.5t69 -175.5t24 -253.5t-25.5 -253t-70 -175t-105.5 -101.5t-133 -32.5q-81 0 -145.5 35.5t-93.5 100.5h-11v-465h-245zM358 504q0 -146 37.5 -225.5t126.5 -79.5t126.5 77.5t37.5 223.5 v78q0 145 -37.5 223t-126.5 78t-126.5 -78t-37.5 -223v-74z" />
<glyph unicode="q" horiz-adv-x="1026" d="M84 537q0 147 24 253.5t69 175.5t109 102.5t144 33.5q77 0 140.5 -39.5t103.5 -118.5h10l25 133h204v-1431h-245v465h-11q-29 -65 -93.5 -100.5t-145.5 -35.5q-72 0 -133 32.5t-105.5 101.5t-70 175t-25.5 253zM340 500q0 -146 37.5 -223.5t126.5 -77.5t126.5 79.5 t37.5 225.5v74q0 145 -37.5 223t-126.5 78t-126.5 -78t-37.5 -223v-78z" />
<glyph unicode="r" horiz-adv-x="653" d="M113 0v1077h204l29 -157h12q11 34 26 66.5t37.5 58t52.5 41.5t71 16q23 0 42 -3t33 -6q16 -4 27 -8v-237h-88q-40 0 -76.5 -12t-64 -40.5t-44 -76t-16.5 -119.5v-600h-245z" />
<glyph unicode="s" d="M68 317v8q0 5 1 9q0 4 1 8h249v-14q1 -43 14.5 -72t34.5 -47t47 -25.5t52 -7.5q24 0 49.5 6t46.5 19.5t34 36t13 55.5q0 43 -22.5 69t-59.5 43.5t-84.5 30t-96.5 27.5t-96.5 36t-84.5 56t-59.5 88t-22.5 131q0 82 30 143.5t82 102.5t122 61.5t151 20.5q77 0 143.5 -20 t116 -57.5t77.5 -92t28 -123.5q0 -17 -1.5 -31t-1.5 -16h-249q0 72 -32.5 105.5t-88.5 33.5q-57 0 -92 -28.5t-35 -77.5q0 -39 22.5 -62.5t59.5 -39t84.5 -27t96.5 -26t96.5 -35.5t84.5 -57t59.5 -90t22.5 -134q0 -99 -30.5 -165.5t-84 -107.5t-127 -58.5t-159.5 -17.5 q-93 0 -165.5 24.5t-123 69.5t-76.5 108t-26 140z" />
<glyph unicode="t" horiz-adv-x="559" d="M18 870v207h109l37 303h209v-303h155v-207h-155v-600q0 -88 86 -88h69v-182q-13 -5 -31 -9t-38 -8t-40 -6t-38 -2q-74 0 -123 25t-78 66t-41 92.5t-12 105.5v606h-109z" />
<glyph unicode="u" horiz-adv-x="1026" d="M113 322v755h245v-688q0 -104 36.5 -147t105.5 -43q36 0 66.5 16t53 44t35.5 67t13 84v667h245v-1077h-204l-25 133h-12q-21 -32 -48 -60.5t-61 -50t-75 -34.5t-89 -13q-62 0 -114.5 18.5t-90.5 59.5t-59.5 107.5t-21.5 161.5z" />
<glyph unicode="v" d="M8 1077h258l140 -463q4 -15 9.5 -37.5t11 -48t11 -53t10.5 -53.5q12 -62 25 -131h8q9 65 20 126q4 26 9.5 53.5t10.5 53.5t10.5 49t11.5 41l137 463h246l-334 -1077h-250z" />
<glyph unicode="w" horiz-adv-x="1307" d="M2 1077h246l102 -442q12 -55 20.5 -114.5t13.5 -109.5q6 -58 9 -114h8q4 53 11 110q5 49 14 108.5t20 117.5l93 444h245l93 -446q8 -40 16 -96.5t15 -109.5q7 -62 14 -128h8q8 62 17 122q8 51 17 108.5t19 103.5l94 446h228l-261 -1077h-247l-107 514q-8 41 -14 87.5 t-10 86.5q-4 47 -7 92h-12q-3 -44 -7 -90q-4 -39 -10 -85.5t-14 -88.5l-104 -516h-248z" />
<glyph unicode="x" d="M10 0l312 557l-287 520h278q39 -77 78.5 -157.5t81.5 -155.5h10q41 75 81.5 155.5t78.5 157.5h264l-291 -514l308 -563h-277l-182 356h-10q-45 -88 -90.5 -178t-92.5 -178h-262z" />
<glyph unicode="y" d="M8 1077h260l162 -506q10 -31 20.5 -78.5t18.5 -92.5q10 -53 18 -109h9q7 53 16 104q8 44 16.5 91.5t18.5 82.5l133 508h246l-295 -1022q-26 -87 -59.5 -165t-79 -136.5t-105 -92.5t-137.5 -34q-74 0 -117 8.5t-43 10.5v188h111q52 0 98 38.5t68 127.5z" />
<glyph unicode="z" horiz-adv-x="840" d="M37 0v104l418 766h-394v207h727v-102l-419 -768h434v-207h-766z" />
<glyph unicode="{" horiz-adv-x="653" d="M49 496v188q28 0 56 6.5t50.5 20.5t37 37.5t14.5 58.5v395q0 97 33.5 156.5t89 92t128.5 43.5t152 11v-157q-27 0 -55.5 -5t-52 -18.5t-38.5 -38t-15 -63.5q0 -103 -6 -201t-9 -201q-2 -52 -14 -93t-38 -69.5t-67.5 -43.5t-101.5 -15v-20q60 0 101 -15t67 -43.5t38.5 -70 t14.5 -93.5q3 -103 9 -201t6 -200q0 -39 15 -63.5t38 -38t52 -18.5t56 -5v-158q-79 0 -152 11t-128.5 43.5t-89 92t-33.5 156.5v396q0 34 -14.5 58t-37 38t-50.5 20.5t-56 6.5z" />
<glyph unicode="|" horiz-adv-x="471" d="M143 -354v1835h185v-1835h-185z" />
<glyph unicode="}" horiz-adv-x="653" d="M43 -168q28 0 56.5 5t52 18.5t38.5 38t15 63.5q0 102 5.5 200t8.5 201q2 52 14.5 93.5t38.5 70t67 43.5t101 15v20q-60 0 -101 15t-67.5 43.5t-39 69.5t-13.5 93q-3 103 -8.5 201t-5.5 201q0 39 -15 63.5t-39 38t-52.5 18.5t-55.5 5v157q79 0 152 -11t128.5 -43.5t89 -92 t33.5 -156.5v-395q0 -35 14.5 -58.5t37 -37.5t50.5 -20.5t56 -6.5v-188q-28 0 -56 -6.5t-50.5 -20.5t-37 -38t-14.5 -58v-396q0 -97 -33.5 -156.5t-89 -92t-128.5 -43.5t-152 -11v158z" />
<glyph unicode="~" horiz-adv-x="981" d="M55 403v246q26 42 63 75q32 28 79 51.5t110 23.5q49 0 93.5 -19.5t88.5 -43t89 -43t96 -19.5q55 0 101 23t80 51q40 33 71 75v-245q-26 -42 -63 -75q-32 -29 -79 -52t-110 -23q-49 0 -93.5 19.5t-88.5 43t-89 43t-96 19.5q-56 0 -101.5 -23.5t-79.5 -51.5 q-40 -33 -71 -75z" />
<glyph unicode="&#xa1;" horiz-adv-x="559" d="M123 -328l72 1002h167l74 -1002h-313zM139 797v280h283v-280h-283z" />
<glyph unicode="&#xa2;" d="M84 702q0 268 85 404.5t255 155.5v219h113v-217q74 -8 134 -37t102 -81.5t64.5 -129.5t22.5 -180h-227q0 186 -96 221v-713q104 31 104 225h219q0 -105 -22.5 -182.5t-64.5 -130t-102 -81t-134 -34.5v-241h-113v243q-176 20 -258 156.5t-82 402.5zM315 664 q0 -128 26 -207t83 -105v703q-59 -25 -84 -104.5t-25 -209.5v-77z" />
<glyph unicode="&#xa3;" d="M18 590v207h127v225q0 102 25.5 178.5t73.5 127.5t116.5 76.5t155.5 25.5q84 0 152.5 -25t117 -75t75 -124.5t26.5 -173.5v-26h-244v53q0 81 -34 122.5t-93 41.5q-57 0 -90 -36.5t-33 -111.5v-278h246v-207h-248l-22 -369h503v-221h-831v221h104v369h-127z" />
<glyph unicode="&#xa4;" d="M0 356l102 103q-27 52 -42 113.5t-15 127.5q0 131 55 238l-100 102l123 127l86 -86q54 47 119 74t139 27q71 0 136.5 -27t119.5 -74l86 86l123 -127l-101 -100q28 -54 43 -114t15 -126q0 -68 -16 -128.5t-44 -114.5l103 -101l-125 -125l-86 86q-54 -45 -118.5 -70.5 t-135.5 -25.5q-72 0 -137 25.5t-119 70.5l-86 -86zM217 700q0 -61 20 -114.5t54 -93.5t79.5 -63t96.5 -23t96 23t78.5 63t53.5 93.5t20 114.5q0 62 -20 116.5t-53.5 94.5t-78.5 63t-96 23t-96.5 -23t-79.5 -63t-54 -94.5t-20 -116.5z" />
<glyph unicode="&#xa5;" d="M8 1405h268l193 -539h8l191 539h256l-262 -617h215v-167h-287v-142h287v-166h-287v-313h-246v313h-287v166h285v144h-285v165h215z" />
<glyph unicode="&#xa6;" horiz-adv-x="471" d="M143 -354v762h185v-762h-185zM143 719v762h185v-762h-185z" />
<glyph unicode="&#xa7;" d="M76 549q0 81 34 158.5t99 134.5q-47 45 -76 107t-29 153q0 82 29.5 143.5t81 102.5t122 61.5t152.5 20.5q77 0 143.5 -20t116 -57.5t77.5 -92t28 -123.5q0 -17 -1 -31t-1 -16h-250q0 72 -32.5 105.5t-88.5 33.5q-57 0 -92 -28.5t-35 -78.5q0 -51 22.5 -88t60 -65.5 t85 -52.5t97 -49.5t97 -55.5t85 -71.5t60 -98t22.5 -133.5q0 -84 -34 -160.5t-99 -132.5q46 -46 75 -108t29 -152q0 -82 -29.5 -143.5t-81 -102.5t-122 -61.5t-152.5 -20.5q-77 0 -143.5 20t-116 57.5t-77.5 92t-28 123.5q0 17 1 31t1 16h250q0 -72 32.5 -105.5t88.5 -33.5 q57 0 92 28.5t35 77.5q0 52 -22.5 88.5t-60 65.5t-85 53t-97 49.5t-96.5 55.5t-84.5 71.5t-60 98t-22.5 133.5zM317 621q0 -62 24.5 -105.5t64 -77.5t89.5 -62t101 -57q20 25 32.5 55t12.5 62q0 61 -24.5 104.5t-64.5 77t-90 61t-102 56.5q-18 -25 -30.5 -54t-12.5 -60z" />
<glyph unicode="&#xa8;" horiz-adv-x="559" d="M-2 1257v224h205v-224h-205zM356 1257v224h205v-224h-205z" />
<glyph unicode="&#xa9;" horiz-adv-x="1237" d="M33 702q0 166 40 300.5t116 229.5t184 146.5t245 51.5t245.5 -51.5t184.5 -146.5t116 -229.5t40 -300.5t-40 -300t-116 -229t-184.5 -146.5t-245.5 -51.5t-245 51.5t-184 146.5t-116 229t-40 300zM147 702q0 -140 32.5 -253.5t93.5 -193.5t148 -123.5t197 -43.5 t197.5 43.5t148.5 123.5t93.5 193.5t32.5 253.5q0 141 -32.5 254.5t-93.5 193.5t-148.5 123.5t-197.5 43.5t-197 -43.5t-148 -123.5t-93.5 -193.5t-32.5 -254.5zM293 702q0 110 22.5 191t65 134.5t103.5 79.5t139 26q65 0 121 -19t97 -58.5t64 -101t23 -145.5h-178 q0 87 -35 128.5t-92 41.5q-76 0 -113 -65t-37 -181v-59q0 -116 38.5 -181t117.5 -65q57 0 92 40.5t35 127.5h172q0 -81 -23 -141.5t-63.5 -100.5t-96.5 -60t-122 -20q-78 0 -139 26t-103.5 78.5t-65 133t-22.5 190.5z" />
<glyph unicode="&#xaa;" horiz-adv-x="621" d="M29 948q0 73 26 122t72.5 78t111 41.5t142.5 12.5v76q0 17 -2.5 32t-10 26t-20.5 17.5t-35 6.5q-23 0 -38 -6.5t-23.5 -16t-12 -21.5t-3.5 -24v-20h-170q-2 6 -2.5 12.5t-0.5 15.5q0 46 17.5 83.5t49.5 64t77.5 41t101.5 14.5q127 0 187.5 -56t60.5 -159v-348 q0 -26 11.5 -37.5t27.5 -11.5h33v-127q-14 -6 -37.5 -13.5t-61.5 -7.5q-49 0 -81.5 26.5t-45.5 68.5h-8q-15 -22 -32.5 -39.5t-39 -30t-49 -19t-63.5 -6.5q-26 0 -57.5 8t-59 30.5t-46.5 62.5t-19 104zM207 963q0 -34 17.5 -54t56.5 -20q27 0 46 12t31 32.5t17.5 48 t5.5 58.5v41q-33 0 -64.5 -5t-55.5 -18.5t-39 -36.5t-15 -58z" />
<glyph unicode="&#xab;" d="M39 668l278 409h187l-221 -409l221 -410h-187zM414 668l278 409h187l-222 -409l222 -410h-187z" />
<glyph unicode="&#xac;" horiz-adv-x="981" d="M59 717v231h852v-565h-213v334h-639z" />
<glyph unicode="&#xad;" horiz-adv-x="559" d="M33 432v242h493v-242h-493z" />
<glyph unicode="&#xae;" horiz-adv-x="1237" d="M33 702q0 166 40 300.5t116 229.5t184 146.5t245 51.5t245.5 -51.5t184.5 -146.5t116 -229.5t40 -300.5t-40 -300t-116 -229t-184.5 -146.5t-245.5 -51.5t-245 51.5t-184 146.5t-116 229t-40 300zM147 702q0 -140 32.5 -253.5t93.5 -193.5t148 -123.5t197 -43.5 t197.5 43.5t148.5 123.5t93.5 193.5t32.5 253.5q0 141 -32.5 254.5t-93.5 193.5t-148.5 123.5t-197.5 43.5t-197 -43.5t-148 -123.5t-93.5 -193.5t-32.5 -254.5zM356 287v831h324q50 0 92.5 -15.5t73 -43t48 -66t17.5 -84.5q0 -41 -10 -72.5t-27.5 -55.5t-41 -40t-50.5 -26 v-8q15 -6 36 -18.5t40 -38t32 -65.5t13 -100q0 -38 4 -64t12 -43t19 -26.5t25 -13.5v-41q-5 -3 -14.5 -6t-21 -5t-23.5 -3.5t-21 -1.5q-29 0 -57 6.5t-50 24t-35.5 48t-13.5 78.5q0 56 -10.5 92.5t-27.5 57.5t-39 29t-44 8h-74v-338h-176zM532 782h84q51 0 83 26.5t32 68.5 q0 38 -29.5 59.5t-78.5 21.5h-91v-176z" />
<glyph unicode="&#xaf;" horiz-adv-x="559" d="M18 1227v178h523v-178h-523z" />
<glyph unicode="&#xb0;" horiz-adv-x="819" d="M115 1139q0 60 22.5 113t62 92.5t92.5 62.5t114 23q60 0 113 -23t92.5 -62.5t62 -92.5t22.5 -113q0 -61 -22.5 -114t-62 -92.5t-92.5 -62t-113 -22.5q-61 0 -114 22.5t-92.5 62t-62 92.5t-22.5 114zM254 1139q0 -32 12 -59.5t32.5 -48t48 -32.5t59.5 -12q31 0 58 12 t47.5 32.5t32 48t11.5 59.5q0 31 -11.5 58.5t-32 47.5t-47.5 31.5t-58 11.5q-32 0 -59.5 -11.5t-48 -31.5t-32.5 -47.5t-12 -58.5z" />
<glyph unicode="&#xb1;" horiz-adv-x="1124" d="M139 0v211h844v-211h-844zM139 649v213h316v357h211v-357h317v-213h-317v-354h-211v354h-316z" />
<glyph unicode="&#xb2;" horiz-adv-x="559" d="M31 655v37q0 49 13.5 91t35.5 79.5t50 71.5t56 67q32 36 61 70.5t50.5 68.5t34 69.5t12.5 74.5q0 13 -3 26.5t-10.5 24.5t-20 18t-31.5 7t-32.5 -9t-22.5 -24.5t-13 -36t-4 -43.5v-57h-162q-2 8 -3 17q-3 15 -3 38q0 69 20 118t54 80t78.5 45.5t93.5 14.5 q48 0 89.5 -12.5t72.5 -39t49 -68.5t18 -101q0 -75 -29 -136.5t-71.5 -117t-91 -109.5t-86.5 -112h282v-152h-487z" />
<glyph unicode="&#xb3;" horiz-adv-x="559" d="M29 895v31h168v-35q0 -54 20 -82.5t62 -28.5q34 0 55.5 26t21.5 85q0 35 -7.5 58t-19.5 36.5t-27.5 19t-31.5 5.5h-51v137h53q28 0 49 29t21 88q0 52 -17 75t-46 23q-32 0 -50 -25t-18 -77v-33h-168v43q0 53 17 96t48 73.5t74 47t94 16.5q52 0 95.5 -15t75 -44.5 t48.5 -73t17 -100.5q0 -69 -29 -111.5t-75 -73.5q49 -24 82.5 -74.5t33.5 -127.5q0 -57 -18 -102.5t-50 -77t-76.5 -48t-98.5 -16.5q-61 0 -108 18t-79 51.5t-48.5 80.5t-16.5 106z" />
<glyph unicode="&#xb4;" horiz-adv-x="559" d="M98 1210l176 271h246l2 -6l-221 -265h-203z" />
<glyph unicode="&#xb5;" horiz-adv-x="1026" d="M113 -354v1431h245v-688q0 -104 36.5 -147t105.5 -43q36 0 66.5 16t53 44t35.5 67t13 84v667h245v-1077h-204l-25 133h-12q-18 -32 -41 -60.5t-52 -50t-63.5 -34.5t-75.5 -13q-21 0 -42 4.5t-40 12.5v-346h-245z" />
<glyph unicode="&#xb6;" d="M37 956q0 93 30.5 175t84 142.5t125 96t153.5 35.5h490v-156h-99v-1603h-166v1603h-108v-1603h-164v866q-74 10 -137 48t-109.5 97.5t-73 135.5t-26.5 163z" />
<glyph unicode="&#xb7;" horiz-adv-x="467" d="M109 569v269h247v-269h-247z" />
<glyph unicode="&#xb8;" horiz-adv-x="559" d="M74 -256h145q34 0 54 10t20 39q0 25 -15 37t-55 12h-67l22 181h139l-10 -91q33 -2 62.5 -11t51.5 -25.5t35 -42t13 -60.5q0 -51 -22.5 -83.5t-56 -51t-72.5 -25t-72 -6.5q-44 0 -89.5 4.5t-82.5 12.5v100z" />
<glyph unicode="&#xb9;" horiz-adv-x="559" d="M66 1274v115q23 3 53 11.5t62 20.5t63 27.5t57 32.5h82v-684h135v-142h-450v142h151v477h-153z" />
<glyph unicode="&#xba;" horiz-adv-x="612" d="M20 1122q0 196 72.5 288.5t218.5 92.5t218.5 -92.5t72.5 -288.5q0 -197 -72.5 -289t-218.5 -92t-218.5 92t-72.5 289zM203 1096q0 -100 24 -152.5t84 -52.5t84.5 52.5t24.5 152.5v53q0 100 -24.5 152.5t-84.5 52.5t-84 -52.5t-24 -152.5v-53z" />
<glyph unicode="&#xbb;" d="M55 258l221 410l-221 409h187l278 -409l-278 -410h-187zM430 258l221 410l-221 409h186l279 -409l-279 -410h-186z" />
<glyph unicode="&#xbc;" horiz-adv-x="1401" d="M66 1198v115q23 3 53 11.5t62 20.5t63 27.5t57 32.5h82v-684h135v-141h-450v141h151v477h-153zM266 -25l811 1455h135l-809 -1455h-137zM813 182v125q31 56 60.5 121.5t56 135.5t50 142t42.5 142h162q-17 -78 -45.5 -159t-60 -152t-61.5 -127t-50 -86h139v75 q12 23 28 58.5t31 73.5t27.5 74.5t19.5 62.5h56v-344h86v-142h-86v-182h-162v182h-293z" />
<glyph unicode="&#xbd;" horiz-adv-x="1401" d="M66 1198v115q23 3 53 11.5t62 20.5t63 27.5t57 32.5h82v-684h135v-141h-450v141h151v477h-153zM256 -25l811 1455h135l-809 -1455h-137zM870 0v37q0 49 13.5 91t36 79.5t50 71.5t56.5 67q32 36 61 70t50.5 68t34 70t12.5 75q0 13 -3 26.5t-10.5 24.5t-20.5 18t-32 7 q-18 0 -31.5 -9t-22.5 -24.5t-13 -36t-4 -43.5v-57h-162q-2 8 -3 17q-3 15 -3 38q0 69 20 118t53.5 80t78 45.5t93.5 14.5q48 0 89.5 -12.5t73 -39t49.5 -68.5t18 -101q0 -75 -29 -136.5t-72 -117.5t-91 -109.5t-87 -111.5h283v-152h-488z" />
<glyph unicode="&#xbe;" horiz-adv-x="1401" d="M59 821v31h168v-35q0 -110 82 -110q34 0 56 25.5t22 84.5q0 35 -7.5 58t-19.5 36.5t-27.5 19t-31.5 5.5h-51v137h53q28 0 49 29t21 88q0 53 -17.5 75.5t-46.5 22.5q-67 0 -67 -102v-33h-168v43q0 53 17 96t48 74t74 47.5t94 16.5q52 0 95.5 -15t74.5 -45t48.5 -73.5 t17.5 -100.5q0 -69 -29 -111t-76 -73q50 -25 83.5 -75.5t33.5 -127.5q0 -57 -18 -102.5t-50 -77t-77 -48t-99 -16.5q-60 0 -107 18t-79.5 51.5t-49 81t-16.5 105.5zM258 -25l811 1455h135l-809 -1455h-137zM807 182v125q31 56 60.5 121.5t56 135.5t50 142t42.5 142h162 q-17 -78 -45.5 -159t-60 -152t-61.5 -127t-50 -86h139v75q12 23 28 58.5t31 73.5t27.5 74.5t19.5 62.5h56v-344h86v-142h-86v-182h-162v182h-293z" />
<glyph unicode="&#xbf;" horiz-adv-x="1026" d="M98 12q0 91 19 154.5t47.5 110.5t61.5 83.5t61.5 73.5t47.5 79.5t19 102.5v58h258v-88q0 -62 -18 -108t-45.5 -85.5t-59 -75.5t-59 -76.5t-45.5 -90t-18 -115.5q0 -15 4.5 -43.5t19.5 -56t43 -48t76 -20.5q51 0 82.5 23t48 56t22 70t5.5 66q0 12 -0.5 22t-0.5 18 q-1 9 -1 15h258q1 -14 3 -27q1 -11 2 -23t1 -21q0 -86 -27 -162t-81.5 -133t-136.5 -90t-191 -33q-92 0 -165 26.5t-124.5 74.5t-79 115t-27.5 148zM340 797v280h283v-280h-283z" />
<glyph unicode="&#xc0;" horiz-adv-x="1212" d="M0 0l453 1405h305l452 -1405h-268l-86 276h-518l-84 -276h-254zM323 1803l2 6h246l176 -271h-203zM410 510h374l-141 469q-8 28 -16 61t-13 62q-7 33 -12 67h-8q-6 -37 -13 -71q-6 -29 -13 -62t-15 -57z" />
<glyph unicode="&#xc1;" horiz-adv-x="1212" d="M0 0l453 1405h305l452 -1405h-268l-86 276h-518l-84 -276h-254zM410 510h374l-141 469q-8 28 -16 61t-13 62q-7 33 -12 67h-8q-6 -37 -13 -71q-6 -29 -13 -62t-15 -57zM465 1538l176 271h246l2 -6l-221 -265h-203z" />
<glyph unicode="&#xc2;" horiz-adv-x="1212" d="M0 0l453 1405h305l452 -1405h-268l-86 276h-518l-84 -276h-254zM331 1532l176 277h201l174 -277h-184l-91 142l-92 -142h-184zM410 510h374l-141 469q-8 28 -16 61t-13 62q-7 33 -12 67h-8q-6 -37 -13 -71q-6 -29 -13 -62t-15 -57z" />
<glyph unicode="&#xc3;" horiz-adv-x="1212" d="M0 0l453 1405h305l452 -1405h-268l-86 276h-518l-84 -276h-254zM262 1559q0 42 11.5 86.5t35.5 80.5t62 59.5t92 23.5q38 0 72 -12t67 -26t66 -26t68 -12q32 0 52.5 16t26.5 60h136q0 -42 -11.5 -86.5t-36 -81t-63 -59.5t-92.5 -23q-37 0 -70.5 12t-66.5 26t-66 26 t-67 12q-33 0 -53.5 -17t-26.5 -59h-136zM410 510h374l-141 469q-8 28 -16 61t-13 62q-7 33 -12 67h-8q-6 -37 -13 -71q-6 -29 -13 -62t-15 -57z" />
<glyph unicode="&#xc4;" horiz-adv-x="1212" d="M0 0l453 1405h305l452 -1405h-268l-86 276h-518l-84 -276h-254zM325 1585v224h205v-224h-205zM410 510h374l-141 469q-8 28 -16 61t-13 62q-7 33 -12 67h-8q-6 -37 -13 -71q-6 -29 -13 -62t-15 -57zM683 1585v224h205v-224h-205z" />
<glyph unicode="&#xc5;" horiz-adv-x="1212" d="M0 0l453 1405h305l452 -1405h-268l-86 276h-518l-84 -276h-254zM410 510h374l-141 469q-8 28 -16 61t-13 62q-7 33 -12 67h-8q-6 -37 -13 -71q-6 -29 -13 -62t-15 -57zM410 1674q0 40 15.5 76t42 62.5t62.5 42t77 15.5t77 -15.5t62.5 -42.5t41.5 -62.5t15 -75.5 q0 -41 -15.5 -77t-42 -62.5t-62.5 -42t-76 -15.5t-76 15t-63 41.5t-42.5 62.5t-15.5 78zM512 1674q0 -41 27 -68t68 -27q19 0 36 7t30 20t20.5 30.5t7.5 37.5t-7.5 37t-20.5 30t-30 20t-36 7q-41 0 -68 -27t-27 -67z" />
<glyph unicode="&#xc6;" horiz-adv-x="1679" d="M-16 0l538 1405h1057v-234h-682l82 -335h510v-234h-453l90 -369h465v-233h-676l-67 276h-518l-103 -276h-243zM416 510h377l-144 608h-8z" />
<glyph unicode="&#xc7;" horiz-adv-x="1212" d="M70 702q0 186 37.5 323t109.5 227t176 134t236 44q110 0 204.5 -32t163.5 -98.5t108.5 -170t39.5 -246.5h-268q0 81 -18 141.5t-51 100.5t-78.5 59.5t-100.5 19.5q-73 0 -127.5 -31t-90.5 -89t-53.5 -141.5t-17.5 -188.5v-103q0 -105 18 -188.5t55 -141.5t93 -89t131 -31 q57 0 103.5 19.5t79.5 59t51 99.5t18 141h256q0 -138 -39 -240.5t-108 -170t-164 -101.5q-73 -25 -157 -31l-5 -45q33 -2 62.5 -11t51.5 -25.5t35 -42t13 -60.5q0 -51 -22.5 -83.5t-56 -51t-72.5 -25t-72 -6.5q-44 0 -89.5 4.5t-82.5 12.5v100h145q34 0 54 10t20 39 q0 25 -15 37t-55 12h-67l17 139q-79 10 -145 38q-104 44 -176 134t-109.5 226.5t-37.5 322.5z" />
<glyph unicode="&#xc8;" horiz-adv-x="1120" d="M123 0v1405h895v-234h-633v-335h543v-234h-543v-369h645v-233h-907zM276 1802l3 6h245l176 -270h-202z" />
<glyph unicode="&#xc9;" horiz-adv-x="1120" d="M123 0v1405h895v-234h-633v-335h543v-234h-543v-369h645v-233h-907zM420 1538l176 270h246l2 -6l-221 -264h-203z" />
<glyph unicode="&#xca;" horiz-adv-x="1120" d="M123 0v1405h895v-234h-633v-335h543v-234h-543v-369h645v-233h-907zM285 1532l176 276h201l174 -276h-185l-90 141l-92 -141h-184z" />
<glyph unicode="&#xcb;" horiz-adv-x="1120" d="M123 0v1405h895v-234h-633v-335h543v-234h-543v-369h645v-233h-907zM279 1585v223h204v-223h-204zM637 1585v223h205v-223h-205z" />
<glyph unicode="&#xcc;" horiz-adv-x="467" d="M-49 1803l2 6h246l176 -271h-203zM102 0v1405h263v-1405h-263z" />
<glyph unicode="&#xcd;" horiz-adv-x="467" d="M93 1538l176 271h246l2 -6l-221 -265h-203zM102 0v1405h263v-1405h-263z" />
<glyph unicode="&#xce;" horiz-adv-x="467" d="M-42 1532l177 277h201l174 -277h-184l-91 142l-92 -142h-185zM102 0v1405h263v-1405h-263z" />
<glyph unicode="&#xcf;" horiz-adv-x="467" d="M-48 1585v224h206v-224h-206zM102 0v1405h263v-1405h-263zM311 1585v224h205v-224h-205z" />
<glyph unicode="&#xd0;" horiz-adv-x="1212" d="M20 639v174h103v592h457q131 0 235.5 -43t177 -128.5t111.5 -213t39 -297.5q0 -180 -39 -315.5t-111.5 -226t-177 -136t-235.5 -45.5h-457v639h-103zM385 233h170q73 0 131.5 27.5t100 82t63.5 137t22 192.5v102q0 99 -22 173.5t-63.5 124t-100 74.5t-131.5 25h-170v-358 h256v-174h-256v-406z" />
<glyph unicode="&#xd1;" horiz-adv-x="1212" d="M123 0v1405h231l434 -774q8 -14 19.5 -36t21.5 -43q11 -25 23 -52l6 6q-1 27 -1 50q-1 20 -1 39v28v782h234v-1405h-234l-434 774q-6 11 -16.5 32.5t-21.5 43.5q-12 26 -26 55l-8 -6q1 -23 2 -45q1 -19 1.5 -38.5t0.5 -33.5v-782h-231zM262 1559q0 42 11 86t35.5 80.5 t62.5 59.5t92 23q37 0 71.5 -11.5t67.5 -26t65.5 -26t67.5 -11.5q32 0 53 16t27 59h135q0 -42 -11 -86t-35.5 -80.5t-63 -59.5t-92.5 -23q-37 0 -71 11.5t-67 26t-66 26t-67 11.5q-32 0 -52.5 -16.5t-27.5 -58.5h-135z" />
<glyph unicode="&#xd2;" horiz-adv-x="1307" d="M70 702q0 186 40 323t115.5 227t183.5 134t244 44t244.5 -44t184 -134t115.5 -227t40 -323t-40 -322.5t-115.5 -226.5t-184 -134t-244.5 -44t-244 44t-183.5 134t-115.5 226.5t-40 322.5zM340 651q0 -105 19.5 -188.5t58.5 -141.5t98 -89t137 -31t137 31t98.5 89 t59 141.5t19.5 188.5v103q0 105 -19.5 188.5t-59 141.5t-98.5 89t-137 31t-137 -31t-98 -89t-58.5 -141.5t-19.5 -188.5v-103zM371 1803l2 6h246l176 -271h-203z" />
<glyph unicode="&#xd3;" horiz-adv-x="1307" d="M70 702q0 186 40 323t115.5 227t183.5 134t244 44t244.5 -44t184 -134t115.5 -227t40 -323t-40 -322.5t-115.5 -226.5t-184 -134t-244.5 -44t-244 44t-183.5 134t-115.5 226.5t-40 322.5zM340 651q0 -105 19.5 -188.5t58.5 -141.5t98 -89t137 -31t137 31t98.5 89 t59 141.5t19.5 188.5v103q0 105 -19.5 188.5t-59 141.5t-98.5 89t-137 31t-137 -31t-98 -89t-58.5 -141.5t-19.5 -188.5v-103zM513 1538l176 271h246l2 -6l-221 -265h-203z" />
<glyph unicode="&#xd4;" horiz-adv-x="1307" d="M70 702q0 186 40 323t115.5 227t183.5 134t244 44t244.5 -44t184 -134t115.5 -227t40 -323t-40 -322.5t-115.5 -226.5t-184 -134t-244.5 -44t-244 44t-183.5 134t-115.5 226.5t-40 322.5zM340 651q0 -105 19.5 -188.5t58.5 -141.5t98 -89t137 -31t137 31t98.5 89 t59 141.5t19.5 188.5v103q0 105 -19.5 188.5t-59 141.5t-98.5 89t-137 31t-137 -31t-98 -89t-58.5 -141.5t-19.5 -188.5v-103zM379 1532l176 277h201l174 -277h-184l-91 142l-92 -142h-184z" />
<glyph unicode="&#xd5;" horiz-adv-x="1307" d="M70 702q0 186 40 323t115.5 227t183.5 134t244 44t244.5 -44t184 -134t115.5 -227t40 -323t-40 -322.5t-115.5 -226.5t-184 -134t-244.5 -44t-244 44t-183.5 134t-115.5 226.5t-40 322.5zM310 1559q0 42 11.5 86.5t35.5 80.5t62 59.5t92 23.5q38 0 72 -12t67 -26t66 -26 t68 -12q32 0 52.5 16t26.5 60h136q0 -42 -11.5 -86.5t-36 -81t-63 -59.5t-92.5 -23q-37 0 -70.5 12t-66.5 26t-66 26t-67 12q-33 0 -53.5 -17t-26.5 -59h-136zM340 651q0 -105 19.5 -188.5t58.5 -141.5t98 -89t137 -31t137 31t98.5 89t59 141.5t19.5 188.5v103 q0 105 -19.5 188.5t-59 141.5t-98.5 89t-137 31t-137 -31t-98 -89t-58.5 -141.5t-19.5 -188.5v-103z" />
<glyph unicode="&#xd6;" horiz-adv-x="1307" d="M70 702q0 186 40 323t115.5 227t183.5 134t244 44t244.5 -44t184 -134t115.5 -227t40 -323t-40 -322.5t-115.5 -226.5t-184 -134t-244.5 -44t-244 44t-183.5 134t-115.5 226.5t-40 322.5zM340 651q0 -105 19.5 -188.5t58.5 -141.5t98 -89t137 -31t137 31t98.5 89 t59 141.5t19.5 188.5v103q0 105 -19.5 188.5t-59 141.5t-98.5 89t-137 31t-137 -31t-98 -89t-58.5 -141.5t-19.5 -188.5v-103zM373 1585v224h205v-224h-205zM731 1585v224h205v-224h-205z" />
<glyph unicode="&#xd7;" horiz-adv-x="981" d="M59 227l299 297l-299 299l148 148l297 -299l299 299l147 -148l-299 -299l299 -297l-147 -147l-299 299l-297 -299z" />
<glyph unicode="&#xd8;" horiz-adv-x="1307" d="M70 702q0 186 40 323t115.5 227t183.5 134t244 44q187 0 318 -82l84 133h172l-146 -232q76 -90 116 -225.5t40 -321.5t-40 -322.5t-115.5 -226.5t-184 -134t-244.5 -44q-184 0 -317 80l-82 -131h-172l143 230q-75 89 -115 225.5t-40 322.5zM340 651q0 -74 9 -137.5 t28 -116.5l463 742q-71 65 -187 65q-78 0 -137 -31t-98 -89t-58.5 -141.5t-19.5 -188.5v-103zM467 264q72 -63 186 -63q78 0 137 31t98.5 89t59 141.5t19.5 188.5v103q0 72 -9.5 135.5t-29.5 114.5z" />
<glyph unicode="&#xd9;" horiz-adv-x="1212" d="M125 440v965h262v-956q0 -122 57 -185t162 -63t163 63t58 185v956h263v-965q0 -114 -33.5 -201t-96 -145.5t-152 -88.5t-202.5 -30t-202 30t-151 88.5t-95 145.5t-33 201zM324 1802l2 6h245l177 -270h-203z" />
<glyph unicode="&#xda;" horiz-adv-x="1212" d="M125 440v965h262v-956q0 -122 57 -185t162 -63t163 63t58 185v956h263v-965q0 -114 -33.5 -201t-96 -145.5t-152 -88.5t-202.5 -30t-202 30t-151 88.5t-95 145.5t-33 201zM465 1538l176 270h246l2 -6l-221 -264h-203z" />
<glyph unicode="&#xdb;" horiz-adv-x="1212" d="M125 440v965h262v-956q0 -122 57 -185t162 -63t163 63t58 185v956h263v-965q0 -114 -33.5 -201t-96 -145.5t-152 -88.5t-202.5 -30t-202 30t-151 88.5t-95 145.5t-33 201zM332 1532l176 276h201l174 -276h-185l-92 141l-92 -141h-182z" />
<glyph unicode="&#xdc;" horiz-adv-x="1212" d="M125 440v965h262v-956q0 -122 57 -185t162 -63t163 63t58 185v956h263v-965q0 -114 -33.5 -201t-96 -145.5t-152 -88.5t-202.5 -30t-202 30t-151 88.5t-95 145.5t-33 201zM326 1585v223h204v-223h-204zM682 1585v223h207v-223h-207z" />
<glyph unicode="&#xdd;" horiz-adv-x="1120" d="M0 1405h276l287 -617h8l285 617h264l-428 -875v-530h-262v530zM419 1538l176 271h246l2 -6l-221 -265h-203z" />
<glyph unicode="&#xde;" horiz-adv-x="1120" d="M123 0v1405h262v-250h240q109 0 191 -31.5t137.5 -88t83.5 -134t28 -168.5q0 -99 -31.5 -180t-89.5 -138t-139 -88.5t-180 -31.5h-240v-295h-262zM385 526h213q96 0 146.5 55t50.5 152q0 87 -51.5 138t-145.5 51h-213v-396z" />
<glyph unicode="&#xdf;" horiz-adv-x="1026" d="M82 0v1065q0 117 34 200.5t93 137t139 78t172 24.5q88 0 162.5 -26t128.5 -75.5t84.5 -120.5t30.5 -161q0 -51 -14.5 -99.5t-40 -90.5t-61.5 -74t-79 -49v-8q52 -19 96 -56t75.5 -85.5t49 -105.5t17.5 -116q0 -99 -32 -180t-87.5 -138t-130 -88.5t-160.5 -31.5h-133v209 h106q39 0 73.5 18.5t60 50t40.5 73.5t15 89q0 46 -15 87t-40.5 71.5t-60 48t-73.5 17.5h-106v231h100q31 0 59 17.5t48.5 47.5t32.5 70.5t12 85.5q0 40 -10.5 73.5t-31.5 57.5t-52.5 37.5t-73.5 13.5q-82 0 -132 -55.5t-50 -161.5v-1081h-246z" />
<glyph unicode="&#xe0;" d="M29 279q0 109 39.5 181t110 115.5t169 61.5t215.5 18v113q0 28 -4.5 52t-16.5 42t-34 28.5t-57 10.5q-38 0 -63 -10.5t-39.5 -26.5t-20.5 -36.5t-6 -39.5v-30h-240q-2 9 -2 20v25q0 67 26 122.5t73.5 94.5t114.5 60.5t150 21.5q187 0 277 -83.5t90 -234.5v-530 q0 -38 18 -55t39 -17h50v-174q-20 -11 -55 -22t-91 -11q-74 0 -123 39.5t-67 102.5h-11q-23 -32 -48 -58.5t-57 -45t-72.5 -28.5t-94.5 -10q-38 0 -84.5 12.5t-88 46t-69.5 92.5t-28 153zM161 1475l2 6h246l176 -271h-203zM281 301q0 -56 28.5 -88.5t91.5 -32.5 q44 0 74.5 19t50 51.5t28.5 75t9 90.5v61q-54 0 -104.5 -8t-90 -28t-63.5 -54t-24 -86z" />
<glyph unicode="&#xe1;" d="M29 279q0 109 39.5 181t110 115.5t169 61.5t215.5 18v113q0 28 -4.5 52t-16.5 42t-34 28.5t-57 10.5q-38 0 -63 -10.5t-39.5 -26.5t-20.5 -36.5t-6 -39.5v-30h-240q-2 9 -2 20v25q0 67 26 122.5t73.5 94.5t114.5 60.5t150 21.5q187 0 277 -83.5t90 -234.5v-530 q0 -38 18 -55t39 -17h50v-174q-20 -11 -55 -22t-91 -11q-74 0 -123 39.5t-67 102.5h-11q-23 -32 -48 -58.5t-57 -45t-72.5 -28.5t-94.5 -10q-38 0 -84.5 12.5t-88 46t-69.5 92.5t-28 153zM281 301q0 -56 28.5 -88.5t91.5 -32.5q44 0 74.5 19t50 51.5t28.5 75t9 90.5v61 q-54 0 -104.5 -8t-90 -28t-63.5 -54t-24 -86zM303 1210l176 271h246l2 -6l-221 -265h-203z" />
<glyph unicode="&#xe2;" d="M29 279q0 109 39.5 181t110 115.5t169 61.5t215.5 18v113q0 28 -4.5 52t-16.5 42t-34 28.5t-57 10.5q-38 0 -63 -10.5t-39.5 -26.5t-20.5 -36.5t-6 -39.5v-30h-240q-2 9 -2 20v25q0 67 26 122.5t73.5 94.5t114.5 60.5t150 21.5q187 0 277 -83.5t90 -234.5v-530 q0 -38 18 -55t39 -17h50v-174q-20 -11 -55 -22t-91 -11q-74 0 -123 39.5t-67 102.5h-11q-23 -32 -48 -58.5t-57 -45t-72.5 -28.5t-94.5 -10q-38 0 -84.5 12.5t-88 46t-69.5 92.5t-28 153zM169 1204l176 277h201l174 -277h-184l-91 142l-92 -142h-184zM281 301 q0 -56 28.5 -88.5t91.5 -32.5q44 0 74.5 19t50 51.5t28.5 75t9 90.5v61q-54 0 -104.5 -8t-90 -28t-63.5 -54t-24 -86z" />
<glyph unicode="&#xe3;" d="M29 279q0 109 39.5 181t110 115.5t169 61.5t215.5 18v113q0 28 -4.5 52t-16.5 42t-34 28.5t-57 10.5q-38 0 -63 -10.5t-39.5 -26.5t-20.5 -36.5t-6 -39.5v-30h-240q-2 9 -2 20v25q0 67 26 122.5t73.5 94.5t114.5 60.5t150 21.5q187 0 277 -83.5t90 -234.5v-530 q0 -38 18 -55t39 -17h50v-174q-20 -11 -55 -22t-91 -11q-74 0 -123 39.5t-67 102.5h-11q-23 -32 -48 -58.5t-57 -45t-72.5 -28.5t-94.5 -10q-38 0 -84.5 12.5t-88 46t-69.5 92.5t-28 153zM100 1231q0 42 11.5 86.5t35.5 80.5t62 59.5t92 23.5q38 0 72 -12t67 -26t66 -26 t68 -12q32 0 52.5 16t26.5 60h136q0 -42 -11.5 -86.5t-36 -81t-63 -59.5t-92.5 -23q-37 0 -70.5 12t-66.5 26t-66 26t-67 12q-33 0 -53.5 -17t-26.5 -59h-136zM281 301q0 -56 28.5 -88.5t91.5 -32.5q44 0 74.5 19t50 51.5t28.5 75t9 90.5v61q-54 0 -104.5 -8t-90 -28 t-63.5 -54t-24 -86z" />
<glyph unicode="&#xe4;" d="M29 279q0 109 39.5 181t110 115.5t169 61.5t215.5 18v113q0 28 -4.5 52t-16.5 42t-34 28.5t-57 10.5q-38 0 -63 -10.5t-39.5 -26.5t-20.5 -36.5t-6 -39.5v-30h-240q-2 9 -2 20v25q0 67 26 122.5t73.5 94.5t114.5 60.5t150 21.5q187 0 277 -83.5t90 -234.5v-530 q0 -38 18 -55t39 -17h50v-174q-20 -11 -55 -22t-91 -11q-74 0 -123 39.5t-67 102.5h-11q-23 -32 -48 -58.5t-57 -45t-72.5 -28.5t-94.5 -10q-38 0 -84.5 12.5t-88 46t-69.5 92.5t-28 153zM163 1257v224h205v-224h-205zM281 301q0 -56 28.5 -88.5t91.5 -32.5q44 0 74.5 19 t50 51.5t28.5 75t9 90.5v61q-54 0 -104.5 -8t-90 -28t-63.5 -54t-24 -86zM521 1257v224h205v-224h-205z" />
<glyph unicode="&#xe5;" d="M29 279q0 109 39.5 181t110 115.5t169 61.5t215.5 18v113q0 28 -4.5 52t-16.5 42t-34 28.5t-57 10.5q-38 0 -63 -10.5t-39.5 -26.5t-20.5 -36.5t-6 -39.5v-30h-240q-2 9 -2 20v25q0 67 26 122.5t73.5 94.5t114.5 60.5t150 21.5q187 0 277 -83.5t90 -234.5v-530 q0 -38 18 -55t39 -17h50v-174q-20 -11 -55 -22t-91 -11q-74 0 -123 39.5t-67 102.5h-11q-23 -32 -48 -58.5t-57 -45t-72.5 -28.5t-94.5 -10q-38 0 -84.5 12.5t-88 46t-69.5 92.5t-28 153zM248 1346q0 40 15.5 76t42 62.5t62.5 42t77 15.5t77 -15.5t62.5 -42.5t41.5 -62.5 t15 -75.5q0 -41 -15.5 -77t-42 -62.5t-62.5 -42t-76 -15.5t-76 15t-63 41.5t-42.5 62.5t-15.5 78zM281 301q0 -56 28.5 -88.5t91.5 -32.5q44 0 74.5 19t50 51.5t28.5 75t9 90.5v61q-54 0 -104.5 -8t-90 -28t-63.5 -54t-24 -86zM350 1346q0 -41 27 -68t68 -27q19 0 36 7 t30 20t20.5 30.5t7.5 37.5t-7.5 37t-20.5 30t-30 20t-36 7q-41 0 -68 -27t-27 -67z" />
<glyph unicode="&#xe6;" horiz-adv-x="1493" d="M76 279q0 109 39.5 181t110 115.5t169 61.5t215.5 18v113q0 28 -4.5 52t-16.5 42t-34 28.5t-57 10.5q-38 0 -63 -10.5t-39.5 -26.5t-20.5 -36.5t-6 -39.5v-30h-240q-2 9 -2 20v25q0 67 26 122.5t73.5 94.5t115 60.5t150.5 21.5q92 0 161 -26.5t115 -76.5q50 53 114 78 t142 25q195 0 292 -136.5t97 -426.5v-62h-547q1 -72 10 -128t28.5 -94.5t51 -58.5t76.5 -20q63 0 100 54t37 151h244q0 -104 -28.5 -180.5t-79.5 -126.5t-121 -74.5t-152 -24.5q-108 0 -188.5 36t-132.5 110q-29 -32 -62.5 -59t-72.5 -46.5t-86 -30t-103 -10.5 q-44 0 -98 12.5t-101.5 46t-79.5 92.5t-32 153zM328 301q0 -56 29 -88.5t92 -32.5q43 0 74 19t50 51.5t28 75t9 90.5v61q-54 0 -104.5 -8t-90 -28t-63.5 -54t-24 -86zM868 655h287q0 118 -31.5 182t-99.5 64q-78 0 -113.5 -64t-42.5 -182z" />
<glyph unicode="&#xe7;" d="M84 539q0 290 99.5 426.5t299.5 136.5q86 0 156 -25t119 -77.5t75.5 -133.5t26.5 -194h-252q0 114 -31 168.5t-94 54.5q-78 0 -110.5 -81t-32.5 -236v-78q0 -155 34.5 -236.5t117.5 -81.5q66 0 95 56t29 168h244q0 -113 -26 -194.5t-74 -134t-116 -77.5q-49 -18 -106 -23 l-5 -45q33 -2 62.5 -11t51.5 -25.5t35 -42t13 -60.5q0 -51 -22.5 -83.5t-56 -51t-72.5 -25t-72 -6.5q-44 0 -89.5 4.5t-82.5 12.5v100h145q34 0 54 10t20 39q0 25 -15 37t-55 12h-67l17 141q-49 8 -89 25q-77 34 -127.5 103.5t-74.5 176t-24 251.5z" />
<glyph unicode="&#xe8;" d="M63 539q0 290 107 426.5t307 136.5q195 0 292 -136.5t97 -426.5v-62h-547q1 -72 10.5 -128t29 -94.5t50.5 -58.5t76 -20q63 0 100.5 54t37.5 151h243q0 -104 -28.5 -180.5t-79.5 -126.5t-121 -74.5t-152 -24.5q-207 0 -314.5 137t-107.5 427zM184 1475l2 6h246l176 -271 h-203zM322 655h286q0 118 -31.5 182t-99.5 64q-78 0 -113.5 -64t-41.5 -182z" />
<glyph unicode="&#xe9;" d="M63 539q0 290 107 426.5t307 136.5q195 0 292 -136.5t97 -426.5v-62h-547q1 -72 10.5 -128t29 -94.5t50.5 -58.5t76 -20q63 0 100.5 54t37.5 151h243q0 -104 -28.5 -180.5t-79.5 -126.5t-121 -74.5t-152 -24.5q-207 0 -314.5 137t-107.5 427zM322 655h286 q0 118 -31.5 182t-99.5 64q-78 0 -113.5 -64t-41.5 -182zM326 1210l176 271h246l2 -6l-221 -265h-203z" />
<glyph unicode="&#xea;" d="M63 539q0 290 107 426.5t307 136.5q195 0 292 -136.5t97 -426.5v-62h-547q1 -72 10.5 -128t29 -94.5t50.5 -58.5t76 -20q63 0 100.5 54t37.5 151h243q0 -104 -28.5 -180.5t-79.5 -126.5t-121 -74.5t-152 -24.5q-207 0 -314.5 137t-107.5 427zM192 1204l176 277h201 l174 -277h-184l-91 142l-92 -142h-184zM322 655h286q0 118 -31.5 182t-99.5 64q-78 0 -113.5 -64t-41.5 -182z" />
<glyph unicode="&#xeb;" d="M63 539q0 290 107 426.5t307 136.5q195 0 292 -136.5t97 -426.5v-62h-547q1 -72 10.5 -128t29 -94.5t50.5 -58.5t76 -20q63 0 100.5 54t37.5 151h243q0 -104 -28.5 -180.5t-79.5 -126.5t-121 -74.5t-152 -24.5q-207 0 -314.5 137t-107.5 427zM186 1257v224h205v-224h-205 zM322 655h286q0 118 -31.5 182t-99.5 64q-78 0 -113.5 -64t-41.5 -182zM544 1257v224h205v-224h-205z" />
<glyph unicode="&#xec;" horiz-adv-x="467" d="M-49 1475l2 6h246l176 -271h-203zM111 0v1077h245v-1077h-245z" />
<glyph unicode="&#xed;" horiz-adv-x="467" d="M93 1210l176 271h246l2 -6l-221 -265h-203zM111 0v1077h245v-1077h-245z" />
<glyph unicode="&#xee;" horiz-adv-x="467" d="M-42 1204l177 277h201l174 -277h-184l-91 142l-92 -142h-185zM111 0v1077h245v-1077h-245z" />
<glyph unicode="&#xef;" horiz-adv-x="467" d="M-48 1257v224h206v-224h-206zM111 0v1077h245v-1077h-245zM311 1257v224h205v-224h-205z" />
<glyph unicode="&#xf0;" horiz-adv-x="1026" d="M84 539q0 139 26 244t74.5 176t117.5 107t155 36q23 0 50 -4.5t50 -12.5l6 9q-15 29 -35.5 61.5t-42.5 63.5l-264 -23v150l154 14q-31 35 -60 64l-49 49l4 8h258q22 -19 48 -43.5t55 -55.5l266 25v-150l-154 -14q40 -59 76.5 -130.5t64 -158.5t44 -190.5t16.5 -224.5 q0 -290 -107.5 -427t-322.5 -137t-322.5 137t-107.5 427zM340 500q0 -155 39.5 -236.5t134.5 -81.5t134.5 81.5t39.5 236.5v78q0 154 -39.5 235.5t-134.5 81.5t-134.5 -81.5t-39.5 -235.5v-78z" />
<glyph unicode="&#xf1;" horiz-adv-x="1026" d="M113 0v1077h204l25 -133h12q21 31 48 60t61 50.5t75 34.5t89 13q62 0 114.5 -18.5t90.5 -59.5t59.5 -107t21.5 -161v-756h-245v688q0 104 -38 147.5t-104 43.5q-36 0 -67 -16.5t-53.5 -46t-35 -68.5t-12.5 -84v-664h-245zM169 1231q0 42 11.5 86.5t35.5 80.5t62 59.5 t92 23.5q38 0 72 -12t67 -26t66 -26t68 -12q32 0 52.5 16t26.5 60h136q0 -42 -11.5 -86.5t-36 -81t-63 -59.5t-92.5 -23q-37 0 -70.5 12t-66.5 26t-66 26t-67 12q-33 0 -53.5 -17t-26.5 -59h-136z" />
<glyph unicode="&#xf2;" horiz-adv-x="1026" d="M84 539q0 290 107.5 426.5t322.5 136.5t322.5 -136.5t107.5 -426.5t-107.5 -427t-322.5 -137t-322.5 137t-107.5 427zM230 1475l2 6h246l176 -271h-203zM340 500q0 -155 39.5 -236.5t134.5 -81.5t134.5 81.5t39.5 236.5v78q0 154 -39.5 235.5t-134.5 81.5t-134.5 -81.5 t-39.5 -235.5v-78z" />
<glyph unicode="&#xf3;" horiz-adv-x="1026" d="M84 539q0 290 107.5 426.5t322.5 136.5t322.5 -136.5t107.5 -426.5t-107.5 -427t-322.5 -137t-322.5 137t-107.5 427zM340 500q0 -155 39.5 -236.5t134.5 -81.5t134.5 81.5t39.5 236.5v78q0 154 -39.5 235.5t-134.5 81.5t-134.5 -81.5t-39.5 -235.5v-78zM372 1210 l176 271h246l2 -6l-221 -265h-203z" />
<glyph unicode="&#xf4;" horiz-adv-x="1026" d="M84 539q0 290 107.5 426.5t322.5 136.5t322.5 -136.5t107.5 -426.5t-107.5 -427t-322.5 -137t-322.5 137t-107.5 427zM238 1204l176 277h201l174 -277h-184l-91 142l-92 -142h-184zM340 500q0 -155 39.5 -236.5t134.5 -81.5t134.5 81.5t39.5 236.5v78q0 154 -39.5 235.5 t-134.5 81.5t-134.5 -81.5t-39.5 -235.5v-78z" />
<glyph unicode="&#xf5;" horiz-adv-x="1026" d="M84 539q0 290 107.5 426.5t322.5 136.5t322.5 -136.5t107.5 -426.5t-107.5 -427t-322.5 -137t-322.5 137t-107.5 427zM169 1231q0 42 11.5 86.5t35.5 80.5t62 59.5t92 23.5q38 0 72 -12t67 -26t66 -26t68 -12q32 0 52.5 16t26.5 60h136q0 -42 -11.5 -86.5t-36 -81 t-63 -59.5t-92.5 -23q-37 0 -70.5 12t-66.5 26t-66 26t-67 12q-33 0 -53.5 -17t-26.5 -59h-136zM340 500q0 -155 39.5 -236.5t134.5 -81.5t134.5 81.5t39.5 236.5v78q0 154 -39.5 235.5t-134.5 81.5t-134.5 -81.5t-39.5 -235.5v-78z" />
<glyph unicode="&#xf6;" horiz-adv-x="1026" d="M84 539q0 290 107.5 426.5t322.5 136.5t322.5 -136.5t107.5 -426.5t-107.5 -427t-322.5 -137t-322.5 137t-107.5 427zM232 1257v224h205v-224h-205zM340 500q0 -155 39.5 -236.5t134.5 -81.5t134.5 81.5t39.5 236.5v78q0 154 -39.5 235.5t-134.5 81.5t-134.5 -81.5 t-39.5 -235.5v-78zM590 1257v224h205v-224h-205z" />
<glyph unicode="&#xf7;" horiz-adv-x="1124" d="M68 416v213h987v-213h-987zM455 84v225h213v-225h-213zM455 735v228h213v-228h-213z" />
<glyph unicode="&#xf8;" horiz-adv-x="1026" d="M84 539q0 290 107.5 426.5t322.5 136.5q60 0 111 -11t94 -32l45 84h154l-91 -166q117 -138 117 -438q0 -290 -107.5 -427t-322.5 -137q-62 0 -113 11t-96 32l-45 -84h-154l93 168q-57 70 -86 177.5t-29 259.5zM340 500q0 -70 6 -125l264 487q-38 33 -96 33 q-95 0 -134.5 -81.5t-39.5 -235.5v-78zM414 217q41 -35 100 -35q95 0 134.5 81.5t39.5 236.5v78q0 35 -2.5 67.5t-5.5 61.5z" />
<glyph unicode="&#xf9;" horiz-adv-x="1026" d="M113 322v755h245v-688q0 -104 36.5 -147t105.5 -43q36 0 66.5 16t53 44t35.5 67t13 84v667h245v-1077h-204l-25 133h-12q-21 -32 -48 -60.5t-61 -50t-75 -34.5t-89 -13q-62 0 -114.5 18.5t-90.5 59.5t-59.5 107.5t-21.5 161.5zM230 1475l2 6h246l176 -271h-203z" />
<glyph unicode="&#xfa;" horiz-adv-x="1026" d="M113 322v755h245v-688q0 -104 36.5 -147t105.5 -43q36 0 66.5 16t53 44t35.5 67t13 84v667h245v-1077h-204l-25 133h-12q-21 -32 -48 -60.5t-61 -50t-75 -34.5t-89 -13q-62 0 -114.5 18.5t-90.5 59.5t-59.5 107.5t-21.5 161.5zM372 1210l176 271h246l2 -6l-221 -265h-203 z" />
<glyph unicode="&#xfb;" horiz-adv-x="1026" d="M113 322v755h245v-688q0 -104 36.5 -147t105.5 -43q36 0 66.5 16t53 44t35.5 67t13 84v667h245v-1077h-204l-25 133h-12q-21 -32 -48 -60.5t-61 -50t-75 -34.5t-89 -13q-62 0 -114.5 18.5t-90.5 59.5t-59.5 107.5t-21.5 161.5zM238 1204l176 277h201l174 -277h-184 l-91 142l-92 -142h-184z" />
<glyph unicode="&#xfc;" horiz-adv-x="1026" d="M113 322v755h245v-688q0 -104 36.5 -147t105.5 -43q36 0 66.5 16t53 44t35.5 67t13 84v667h245v-1077h-204l-25 133h-12q-21 -32 -48 -60.5t-61 -50t-75 -34.5t-89 -13q-62 0 -114.5 18.5t-90.5 59.5t-59.5 107.5t-21.5 161.5zM232 1257v224h205v-224h-205zM590 1257v224 h205v-224h-205z" />
<glyph unicode="&#xfd;" d="M8 1077h260l162 -506q10 -31 20.5 -78.5t18.5 -92.5q10 -53 18 -109h9q7 53 16 104q8 44 16.5 91.5t18.5 82.5l133 508h246l-295 -1022q-26 -87 -59.5 -165t-79 -136.5t-105 -92.5t-137.5 -34q-74 0 -117 8.5t-43 10.5v188h111q52 0 98 38.5t68 127.5zM326 1210l176 271 h246l2 -6l-221 -265h-203z" />
<glyph unicode="&#xfe;" horiz-adv-x="1026" d="M113 -354v1835h245v-527q41 75 102.5 111.5t135.5 36.5q80 0 144 -33.5t109 -102.5t69 -175.5t24 -253.5t-25.5 -253t-70 -175t-105.5 -101.5t-133 -32.5q-81 0 -145.5 35.5t-93.5 100.5h-11v-465h-245zM358 504q0 -146 37.5 -225.5t126.5 -79.5t126.5 77.5t37.5 223.5 v78q0 145 -37.5 223t-126.5 78t-126.5 -78t-37.5 -223v-74z" />
<glyph unicode="&#xff;" d="M8 1077h260l162 -506q10 -31 20.5 -78.5t18.5 -92.5q10 -53 18 -109h9q7 53 16 104q8 44 16.5 91.5t18.5 82.5l133 508h246l-295 -1022q-26 -87 -59.5 -165t-79 -136.5t-105 -92.5t-137.5 -34q-74 0 -117 8.5t-43 10.5v188h111q52 0 98 38.5t68 127.5zM186 1257v224h205 v-224h-205zM544 1257v224h205v-224h-205z" />
<glyph unicode="&#x152;" horiz-adv-x="1679" d="M61 702q0 186 32.5 323t93 227t147 134t194.5 44q94 0 171.5 -37.5t136.5 -114.5v127h772v-234h-510v-335h422v-234h-422v-369h524v-233h-786v125q-59 -77 -136.5 -113.5t-171.5 -36.5q-108 0 -194.5 44t-147 134t-93 226.5t-32.5 322.5zM332 651q0 -120 15.5 -205.5 t47 -140t78.5 -79.5t109 -25q63 0 110 25t78.5 79.5t47.5 140t16 205.5v103q0 120 -16 205.5t-47.5 140t-78.5 79.5t-110 25q-62 0 -109 -25t-78.5 -79.5t-47 -140t-15.5 -205.5v-103z" />
<glyph unicode="&#x153;" horiz-adv-x="1585" d="M84 539q0 290 107.5 426.5t322.5 136.5q99 0 173.5 -33t127.5 -102q53 69 124.5 102t164.5 33q195 0 292 -136.5t97 -426.5v-62h-547q1 -72 10 -128t28.5 -94.5t51 -58.5t76.5 -20q63 0 100 54t37 151h244q0 -104 -28.5 -180.5t-79.5 -126.5t-121 -74.5t-152 -24.5 q-96 0 -169 32.5t-126 101.5q-54 -69 -129 -101.5t-174 -32.5q-215 0 -322.5 137t-107.5 427zM340 500q0 -155 39.5 -236.5t134.5 -81.5t134.5 81.5t39.5 236.5v78q0 154 -39.5 235.5t-134.5 81.5t-134.5 -81.5t-39.5 -235.5v-78zM948 655h287q0 118 -31.5 182t-99.5 64 q-79 0 -114.5 -64.5t-41.5 -181.5z" />
<glyph unicode="&#x178;" horiz-adv-x="1120" d="M0 1405h276l287 -617h8l285 617h264l-428 -875v-530h-262v530zM279 1585v224h205v-224h-205zM637 1585v224h205v-224h-205z" />
<glyph unicode="&#x2c6;" horiz-adv-x="559" d="M0 1204l176 277h201l174 -277h-184l-91 142l-92 -142h-184z" />
<glyph unicode="&#x2dc;" horiz-adv-x="559" d="M-66 1231q0 42 11.5 86.5t35.5 80.5t62 59.5t92 23.5q38 0 72 -12t67 -26t66 -26t68 -12q32 0 52.5 16t26.5 60h136q0 -42 -11.5 -86.5t-36 -81t-63 -59.5t-92.5 -23q-37 0 -70.5 12t-66.5 26t-66 26t-67 12q-33 0 -53.5 -17t-26.5 -59h-136z" />
<glyph unicode="&#x2000;" horiz-adv-x="935" />
<glyph unicode="&#x2001;" horiz-adv-x="1870" />
<glyph unicode="&#x2002;" horiz-adv-x="935" />
<glyph unicode="&#x2003;" horiz-adv-x="1870" />
<glyph unicode="&#x2004;" horiz-adv-x="623" />
<glyph unicode="&#x2005;" horiz-adv-x="467" />
<glyph unicode="&#x2006;" horiz-adv-x="311" />
<glyph unicode="&#x2007;" horiz-adv-x="311" />
<glyph unicode="&#x2008;" horiz-adv-x="233" />
<glyph unicode="&#x2009;" horiz-adv-x="374" />
<glyph unicode="&#x200a;" horiz-adv-x="103" />
<glyph unicode="&#x2010;" horiz-adv-x="559" d="M33 432v242h493v-242h-493z" />
<glyph unicode="&#x2011;" horiz-adv-x="559" d="M33 432v242h493v-242h-493z" />
<glyph unicode="&#x2012;" horiz-adv-x="559" d="M33 432v242h493v-242h-493z" />
<glyph unicode="&#x2013;" d="M0 453v200h934v-200h-934z" />
<glyph unicode="&#x2014;" horiz-adv-x="1679" d="M0 453v200h1679v-200h-1679z" />
<glyph unicode="&#x2018;" horiz-adv-x="467" d="M92 805v256l135 344h148l-113 -320h113v-280h-283z" />
<glyph unicode="&#x2019;" horiz-adv-x="467" d="M92 805l113 319h-113v281h283v-256l-135 -344h-148z" />
<glyph unicode="&#x201a;" horiz-adv-x="467" d="M92 0v281h283v-256l-135 -344h-148l113 319h-113z" />
<glyph unicode="&#x201c;" horiz-adv-x="840" d="M90 805v256l135 344h148l-113 -320h113v-280h-283zM465 805v256l135 344h148l-113 -320h113v-280h-283z" />
<glyph unicode="&#x201d;" horiz-adv-x="840" d="M92 805l113 319h-113v281h283v-256l-135 -344h-148zM467 805l113 319h-113v281h283v-256l-136 -344h-147z" />
<glyph unicode="&#x201e;" horiz-adv-x="840" d="M92 0v281h283v-256l-135 -344h-148l113 319h-113zM467 0v281h283v-256l-136 -344h-147l113 319h-113z" />
<glyph unicode="&#x2022;" horiz-adv-x="588" d="M47 705q0 51 19 97t52.5 80t78.5 54t96 20t96.5 -20t79 -54t53 -80t19.5 -97q0 -52 -19.5 -98t-53 -80.5t-79 -55t-96.5 -20.5t-96 20.5t-78.5 55t-52.5 80.5t-19 98z" />
<glyph unicode="&#x2026;" horiz-adv-x="1679" d="M139 0v281h283v-281h-283zM698 0v281h283v-281h-283zM1257 0v281h283v-281h-283z" />
<glyph unicode="&#x202f;" horiz-adv-x="374" />
<glyph unicode="&#x2039;" horiz-adv-x="559" d="M39 668l278 409h187l-221 -409l221 -410h-187z" />
<glyph unicode="&#x203a;" horiz-adv-x="559" d="M55 258l221 410l-221 409h187l278 -409l-278 -410h-187z" />
<glyph unicode="&#x205f;" horiz-adv-x="467" />
<glyph unicode="&#x20ac;" d="M20 465v166h101q-2 17 -2 35v72q0 18 2 36h-101v166h123q27 114 80 204.5t129 154t173 97.5t212 34q38 0 77.5 -5t74.5 -16v-205q-60 19 -131 19q-67 0 -123.5 -20t-102 -56.5t-79.5 -89t-56 -117.5h369v-166h-399q-2 -18 -2 -36v-72q0 -18 2 -35h399v-166h-369 q22 -66 56 -118.5t79.5 -89t102 -56t123.5 -19.5q71 0 131 19v-203q-37 -11 -74 -17t-78 -6q-115 0 -212 34t-173 97.5t-129 154t-80 204.5h-123z" />
<glyph unicode="&#x2122;" horiz-adv-x="1679" d="M158 1268v137h565v-137h-207v-690h-154v690h-204zM788 578v827h228l129 -580h8l129 580h213v-827h-147v600h-9l-135 -600h-137l-133 600h-10v-600h-136z" />
<glyph unicode="&#x25fc;" horiz-adv-x="1075" d="M0 0v1075h1075v-1075h-1075z" />
<glyph unicode="&#xfb01;" horiz-adv-x="1026" d="M18 870v207h109v131q0 54 12 106t41 92.5t78 65.5t123 25q21 0 46 -2t49 -5.5t46 -8t37 -8.5v-183h-100q-86 0 -86 -88v-125h186v-207h-186v-870h-246v870h-109zM670 0v1077h245v-1077h-245zM670 1257v224h245v-224h-245z" />
<glyph unicode="&#xfb02;" horiz-adv-x="1026" d="M18 870v207h109v131q0 54 12 106t41 92.5t78 65.5t123 25q21 0 46 -2t49 -5.5t46 -8t37 -8.5v-183h-100q-86 0 -86 -88v-125h186v-207h-186v-870h-246v870h-109zM670 0v1481h245v-1481h-245z" />
</font>
</defs>
</svg>
