<?xml version="1.0" standalone="no"?>
<!DOCTYPE svg PUBLIC "-//W3C//DTD SVG 1.1//EN" "http://www.w3.org/Graphics/SVG/1.1/DTD/svg11.dtd" >
<svg xmlns="http://www.w3.org/2000/svg">
<metadata></metadata>
<defs>
<font id="archivo_narrowbold_italic" horiz-adv-x="934" >
<font-face units-per-em="2048" ascent="1638" descent="-410" />
<missing-glyph horiz-adv-x="467" />
<glyph horiz-adv-x="2048" />
<glyph horiz-adv-x="2048" />
<glyph unicode="&#xd;" horiz-adv-x="0" />
<glyph unicode=" "  horiz-adv-x="467" />
<glyph unicode="&#x09;" horiz-adv-x="467" />
<glyph unicode="&#xa0;" horiz-adv-x="467" />
<glyph unicode="!" horiz-adv-x="559" d="M70 0l41 281h282l-41 -281h-282zM182 403l70 1002h313l-215 -1002h-168z" />
<glyph unicode="&#x22;" horiz-adv-x="797" d="M172 834v270l43 301h250l-43 -301l-88 -270h-162zM543 834v270l43 301h250l-43 -301l-88 -270h-162z" />
<glyph unicode="#" d="M45 399v172h168l63 289h-151v172h190l91 398h180l-90 -398h153l90 398h181l-91 -398h127v-172h-165l-64 -289h150v-172h-189l-90 -399h-180l90 399h-154l-90 -399h-180l90 399h-129zM393 571h154l63 289h-153z" />
<glyph unicode="$" d="M49 416q0 17 2 34.5t4 31.5q3 16 6 30h234l-4 -20q-2 -8 -3 -16.5t-1 -14.5q0 -59 28.5 -89.5t71.5 -41.5l41 291q-49 20 -99 43t-90.5 57.5t-66 84.5t-25.5 122q0 78 29.5 138.5t80 102.5t118.5 65.5t145 27.5l31 219h100l-30 -221q81 -10 135.5 -42t87.5 -77.5 t47 -101.5t14 -115h-231q0 26 -3.5 49.5t-12.5 42.5t-24.5 33t-39.5 22l-39 -266q58 -21 113.5 -45t99 -58t70 -82.5t26.5 -119.5q0 -96 -33.5 -164t-89 -112t-128.5 -65t-152 -22l-33 -237h-100l32 241q-72 9 -129.5 31t-98 57t-62 82t-21.5 105zM385 956q0 -38 21 -64 t55 -44l33 227q-47 -9 -78 -40t-31 -79zM487 322q24 3 48 11.5t43 24t31 38t12 53.5q0 46 -27.5 76t-69.5 53z" />
<glyph unicode="%" horiz-adv-x="1493" d="M139 944q0 135 26 227.5t70.5 150t102.5 83t123 25.5q61 0 109 -13t81.5 -43t51.5 -79t18 -121q0 -49 -5 -104t-18.5 -109t-36.5 -103t-59 -86.5t-86 -59.5t-117 -22q-60 0 -108.5 12.5t-82 42.5t-51.5 78.5t-18 120.5zM160 0l1054 1405h177l-1057 -1405h-174zM319 954 q0 -52 17.5 -83t62.5 -31q31 0 52.5 15t36.5 42t24.5 64.5t15.5 82.5q7 48 9 74.5t2 46.5q0 52 -17 83.5t-61 31.5q-31 0 -52.5 -15t-36 -42t-24 -65t-16.5 -83q-8 -47 -10.5 -74t-2.5 -47zM829 229q0 135 26 227.5t70.5 150t102.5 83t123 25.5q61 0 109 -13t81.5 -43 t51.5 -79t18 -121q0 -49 -5 -104t-18.5 -109t-36.5 -103t-58.5 -86.5t-85.5 -59.5t-117 -22q-61 0 -109.5 12.5t-82 42.5t-51.5 78.5t-18 120.5zM1010 240q0 -53 17.5 -84t62.5 -31q30 0 51.5 15t36.5 42t25 65t16 83q6 47 8 74t2 47q0 52 -17 83t-61 31q-31 0 -52.5 -15 t-36 -42t-24 -65t-16.5 -83q-8 -48 -10 -74t-2 -46z" />
<glyph unicode="&#x26;" horiz-adv-x="1212" d="M66 317q0 82 23 151t62.5 120.5t92 85.5t110.5 47v8q-37 19 -67.5 43.5t-53 56t-35 71t-12.5 87.5q0 108 39.5 190.5t107.5 138.5t159.5 85t195.5 29q94 0 170.5 -23t131 -65.5t84.5 -103.5t30 -136q0 -7 -0.5 -15t-2 -20.5t-3.5 -31.5t-6 -48h-244q6 40 7 55.5t1 24.5 q0 78 -46 117t-134 39q-55 0 -99 -16.5t-75 -46.5t-47.5 -72.5t-16.5 -94.5q0 -83 47.5 -129.5t124.5 -46.5h84l-28 -207h-78q-48 0 -95.5 -11t-85.5 -40t-61.5 -78.5t-23.5 -126.5q0 -89 52.5 -130.5t145.5 -41.5q110 0 170 54.5t74 154.5l59 426h404l-29 -207h-160 l-28 -213q-12 -96 -52 -174t-104 -133t-151 -85t-195 -30q-100 0 -181.5 23t-139.5 67t-89.5 107.5t-31.5 144.5z" />
<glyph unicode="'" horiz-adv-x="399" d="M172 834v270l43 301h250l-43 -301l-88 -270h-162z" />
<glyph unicode="(" horiz-adv-x="559" d="M70 375q0 52 4 106.5t12 108.5q18 126 55.5 249.5t92.5 239.5t127 223.5t159 202.5h162q-81 -119 -151.5 -256.5t-122.5 -285t-81.5 -299.5t-29.5 -299q0 -93 9 -185t26 -180t41 -169t53 -153h-162q-96 149 -145 325.5t-49 371.5z" />
<glyph unicode=")" horiz-adv-x="559" d="M-96 -322q81 119 151.5 257t122.5 285.5t81.5 299.5t29.5 299q0 93 -9 185t-26 179.5t-41 169t-53 152.5h162q96 -148 145 -324.5t49 -371.5q0 -53 -4 -107t-12 -108q-18 -126 -55.5 -249.5t-92.5 -240t-127 -224.5t-159 -202h-162z" />
<glyph unicode="*" horiz-adv-x="653" d="M96 1006l201 86l-176 90l98 135l156 -121l8 209h160l-49 -207l188 119l61 -135l-204 -90l180 -86l-101 -140l-155 123l-8 -209h-160l49 209l-188 -123z" />
<glyph unicode="+" horiz-adv-x="981" d="M51 416l31 213h315l58 418h211l-58 -418h318l-31 -213h-317l-58 -416h-211l58 416h-316z" />
<glyph unicode="," horiz-adv-x="467" d="M-12 -319l149 319h-104l39 281h282l-35 -256l-184 -344h-147z" />
<glyph unicode="-" horiz-adv-x="559" d="M27 432l34 242h494l-35 -242h-493z" />
<glyph unicode="." horiz-adv-x="467" d="M31 0l39 281h282l-39 -281h-282z" />
<glyph unicode="/" horiz-adv-x="467" d="M-86 -100l516 1605h174l-516 -1605h-174z" />
<glyph unicode="0" d="M68 408q0 63 6 135.5t18 158.5q28 214 73 355t105.5 223.5t136.5 116t166 33.5q79 0 143 -21t109 -71.5t69 -134.5t24 -210q0 -62 -5.5 -134t-17.5 -157q-29 -214 -74.5 -354.5t-106.5 -223t-136.5 -116t-165.5 -33.5q-80 0 -143.5 21t-108 71t-68.5 133t-24 208z M309 362q0 -92 25.5 -136t85.5 -44q46 0 78.5 27t56.5 82.5t42 140t34 199.5q13 92 21.5 156t13 108t6.5 74t2 55q0 100 -23.5 149.5t-85.5 49.5q-46 0 -79 -27t-57 -82.5t-42 -140t-33 -199.5q-14 -100 -29.5 -201.5t-15.5 -210.5z" />
<glyph unicode="1" d="M25 0l26 207h311l125 876h-315l23 164q43 5 100.5 18.5t120 34.5t124.5 47.5t115 57.5h119l-168 -1198h287l-29 -207h-839z" />
<glyph unicode="2" d="M-8 0l8 49q16 93 53.5 173t88 150t110 132t119 120t115 113.5t98.5 112.5t68.5 117.5t25.5 128.5q0 22 -6 44t-19 39.5t-35 28.5t-53 11q-38 0 -66.5 -17.5t-49.5 -46.5t-33.5 -67.5t-18.5 -81.5l-10 -84h-248q0 101 29 193t85.5 162t140.5 111.5t194 41.5 q74 0 137 -17.5t109 -54.5t73 -94.5t29 -137.5q0 -108 -36 -203.5t-92.5 -180t-126 -158t-136 -137t-123 -118t-86.5 -100.5h483l-33 -229h-794z" />
<glyph unicode="3" d="M49 315q0 10 0.5 21t1.5 24.5t3 31.5t5 42h254q-6 -47 -8 -67t-2 -33q0 -72 32 -112t97 -40q39 0 72.5 16.5t58 50t39 84.5t14.5 120q0 46 -11 76t-30 48t-44.5 25.5t-53.5 7.5h-67l28 207h72q31 0 61.5 17t55 51t40 86t15.5 121q0 68 -27.5 99.5t-76.5 31.5 q-65 0 -106.5 -54.5t-57.5 -181.5h-252q9 109 46 192t93.5 138.5t128.5 84t152 28.5q81 0 147 -20.5t112.5 -60.5t71.5 -100t25 -139q0 -78 -18 -138t-49.5 -106t-73 -79t-88.5 -58v-8q35 -15 64.5 -38.5t51 -57.5t33.5 -77t12 -97q0 -110 -35 -198t-95 -150t-140.5 -95 t-171.5 -33q-94 0 -165 23.5t-118.5 68t-71.5 107.5t-24 141z" />
<glyph unicode="4" d="M6 317l29 197q67 97 131.5 208.5t124 230t113.5 239.5t102 238h250q-32 -91 -76 -186t-93 -186.5t-100 -176t-97 -154.5t-84.5 -122.5t-61.5 -80.5h291l34 250q25 40 52.5 89.5t53 100.5t47 100.5t36.5 90.5h108l-90 -631h144l-29 -207h-141l-45 -317h-244l45 317h-500z " />
<glyph unicode="5" d="M49 344q0 42 6 92h254q-6 -39 -6 -74q0 -85 32.5 -133.5t94.5 -48.5q36 0 72 22.5t64.5 67t46.5 110t18 152.5q0 88 -31.5 134.5t-81.5 46.5q-57 0 -97 -34t-69 -85l-231 33l155 778h674l-32 -229h-459l-68 -332q34 25 85.5 47t123.5 22q61 0 113.5 -21t90.5 -63.5 t59.5 -107t21.5 -152.5q0 -141 -36.5 -251.5t-99.5 -186.5t-147.5 -116t-181.5 -40q-87 0 -156 25t-116.5 72.5t-73 116t-25.5 155.5z" />
<glyph unicode="6" d="M78 414q0 105 18 248q29 219 75 366.5t107.5 237t137.5 127t166 37.5q87 0 150 -25.5t103 -71.5t59 -109.5t19 -138.5q0 -27 -1.5 -55t-6.5 -57h-250q5 29 7 55t2 49q0 71 -22 108.5t-75 37.5q-48 0 -80 -32t-54.5 -90.5t-39 -142t-31.5 -186.5q42 53 103 82t127 29 q72 0 125 -25t88 -70t52 -108t17 -139q0 -129 -34.5 -233.5t-93.5 -178.5t-138 -114t-168 -40q-84 0 -151.5 22.5t-114 74t-71.5 135.5t-25 207zM324 354q0 -38 7 -70t21 -54.5t35.5 -35t50.5 -12.5q36 0 64 17.5t48.5 46t34 64.5t21.5 73t11.5 71t3.5 58q0 77 -27 123.5 t-86 46.5q-41 0 -75 -24.5t-58 -68.5t-37.5 -104t-13.5 -131z" />
<glyph unicode="7" d="M141 0q24 169 82 334t136.5 316.5t171.5 285t188 240.5h-567l32 229h832l-25 -166q-54 -70 -112.5 -151t-116 -171t-111 -188t-97.5 -201t-76 -209.5t-46 -214.5q-2 -14 -3.5 -25.5t-2.5 -22.5t-3 -25l-3 -31h-279z" />
<glyph unicode="8" d="M43 305q0 62 13.5 124t41.5 117.5t72 100.5t104 74q-57 40 -83.5 103t-26.5 139q0 93 27 177.5t79 149t128.5 102.5t174.5 38q91 0 156.5 -27t108 -72.5t62.5 -105t20 -123.5q0 -54 -13.5 -109t-39.5 -105t-63 -93t-85 -74q72 -40 104.5 -107t32.5 -153q0 -97 -27.5 -185 t-83 -155t-138 -106.5t-193.5 -39.5q-98 0 -168.5 25t-115.5 69.5t-66 104.5t-21 131zM297 334q0 -76 32.5 -115t92.5 -39q40 0 73.5 18.5t58 54t38.5 88t14 120.5q0 75 -30.5 115t-92.5 40q-51 0 -86.5 -27t-57.5 -68.5t-32 -91.5t-10 -95zM408 961q0 -142 104 -142 q32 0 61 17t51 51t35 84t13 116q0 69 -27.5 103.5t-77.5 34.5q-44 0 -74.5 -26t-49.5 -65t-27 -85.5t-8 -87.5z" />
<glyph unicode="9" d="M78 319q0 28 1.5 56t6.5 57h250q-5 -29 -6.5 -55t-1.5 -49q0 -72 21.5 -109t74.5 -37q48 0 80 32t54.5 90.5t39 142t31.5 186.5q-42 -53 -103 -82t-127 -29q-72 0 -125 25t-88 70t-52 108t-17 139q0 129 34.5 233.5t93.5 178.5t138 114t168 40q84 0 151.5 -22.5t114 -74 t71.5 -135.5t25 -207q0 -106 -18 -248q-29 -219 -75 -366.5t-107 -237t-137 -127t-166 -37.5q-88 0 -150.5 25.5t-103 71.5t-59.5 109t-19 138zM371 893q0 -77 27 -123.5t85 -46.5q41 0 75 24.5t58.5 68.5t38 104t13.5 131q0 77 -28 124.5t-87 47.5q-36 0 -63.5 -17.5 t-48 -46t-34 -64.5t-21.5 -73t-11.5 -71t-3.5 -58z" />
<glyph unicode=":" horiz-adv-x="559" d="M47 0l39 281h283l-39 -281h-283zM158 797l39 280h282l-39 -280h-282z" />
<glyph unicode=";" horiz-adv-x="559" d="M10 -319l150 319h-105l39 281h283l-35 -256l-184 -344h-148zM170 797l39 280h283l-39 -280h-283z" />
<glyph unicode="&#x3c;" horiz-adv-x="981" d="M51 403l35 261l903 423l-33 -241l-680 -311l592 -312l-32 -241z" />
<glyph unicode="=" horiz-adv-x="981" d="M20 197l31 211h844l-31 -211h-844zM82 631l31 213h843l-30 -213h-844z" />
<glyph unicode="&#x3e;" horiz-adv-x="981" d="M-6 -18l31 241l682 312l-594 311l32 241l785 -423l-35 -261z" />
<glyph unicode="?" horiz-adv-x="1026" d="M137 940q0 97 30.5 186t89.5 156.5t145.5 107.5t199.5 40q88 0 158 -22t118 -62.5t73.5 -97.5t25.5 -126q0 -95 -23 -164t-58 -123t-77 -97t-80 -84.5t-66.5 -87.5t-37.5 -105l-8 -58h-256l12 89q8 58 35 106.5t63 92t75.5 85.5t72.5 87t54.5 96t21.5 114q0 20 -5 44 t-19 44.5t-39.5 34.5t-66.5 14q-52 0 -87 -25.5t-56 -65.5t-30 -87.5t-9 -91.5h-256zM303 0l41 281h281l-41 -281h-281z" />
<glyph unicode="@" horiz-adv-x="1638" d="M68 397q0 253 60.5 446.5t173.5 323.5t274 196.5t362 66.5q138 0 241 -22.5t177 -64t122.5 -101.5t77 -135t39.5 -163.5t11 -187.5q0 -82 -11.5 -166.5t-35.5 -163.5t-61 -148.5t-88.5 -121t-118 -81.5t-148.5 -30q-51 0 -88.5 10.5t-64 26.5t-43.5 36t-27 40 q-20 -29 -45 -50.5t-52 -35.5t-53.5 -20.5t-50.5 -6.5q-125 0 -194.5 86t-69.5 260q0 177 32 304.5t84 210t118.5 122t135.5 39.5q76 0 126.5 -36.5t76.5 -102.5l76 116h135q0 -3 -5 -35t-13 -83t-18 -115.5t-20.5 -132t-20 -132.5t-17.5 -117t-12.5 -85.5t-4.5 -38.5 q0 -42 18.5 -62t61.5 -20q47 0 84.5 26t66.5 69t49 98.5t33 114.5t19 117t6 106q0 130 -24.5 231t-81.5 170t-151.5 105t-235.5 36q-163 0 -303 -46.5t-243 -152t-161.5 -276.5t-58.5 -420q0 -164 43 -276t119 -180t180 -97.5t227 -29.5q69 0 120 6t85 14q40 9 66 21 l-17 -138q-8 -3 -31.5 -9t-56 -12t-71 -10.5t-76.5 -4.5q-170 0 -305 40t-228.5 126t-143.5 221t-50 325zM676 420q0 -90 23 -137t77 -47q39 0 68 24.5t50 63.5t35 89t22 101t11 99t3 83q0 85 -20.5 133t-78.5 48q-38 0 -67 -26.5t-50 -68t-35 -93.5t-22.5 -102.5t-12 -95 t-3.5 -71.5z" />
<glyph unicode="A" horiz-adv-x="1212" d="M-53 0l643 1405h301l252 -1405h-266l-46 276h-501l-121 -276h-262zM434 510h359l-62 385q-6 40 -10.5 87t-7.5 89q-4 48 -6 96h-9q-14 -51 -30 -99q-14 -42 -30.5 -88.5t-33.5 -84.5z" />
<glyph unicode="B" horiz-adv-x="1212" d="M57 0l197 1405h584q79 0 144 -22.5t111 -63.5t71.5 -98t25.5 -127q0 -68 -21.5 -126t-57.5 -103.5t-83 -78t-98 -49.5l-2 -8q43 -15 80 -43.5t63.5 -68.5t41.5 -90t15 -109q0 -98 -39 -175.5t-103.5 -131.5t-146.5 -82.5t-169 -28.5h-613zM348 233h309q43 0 81 13.5 t66 40.5t44 67t16 92q0 34 -10.5 63t-32 50t-54 33t-77.5 12h-289zM434 836h273q50 0 89 16t66 43t41.5 62t14.5 73q0 71 -39 106t-107 35h-291z" />
<glyph unicode="C" horiz-adv-x="1212" d="M92 512q0 108 14.5 218t46 212t81 191t119.5 155t162 104t208 38q111 0 200 -32.5t152 -97.5t97 -163t34 -228v-26h-266v37q0 137 -57.5 210.5t-159.5 73.5q-75 0 -131 -32.5t-97 -86.5t-67.5 -124t-42.5 -146t-22.5 -152t-6.5 -141q0 -153 56.5 -237t175.5 -84 q69 0 121.5 25.5t91 69.5t63.5 101.5t39 122.5h256q-24 -110 -70 -209t-117 -173.5t-168 -118.5t-222 -44q-116 0 -207 32.5t-154 99t-96 167.5t-33 238z" />
<glyph unicode="D" horiz-adv-x="1212" d="M57 0l197 1405h432q117 0 208.5 -33.5t155 -100t97 -166.5t33.5 -233q0 -95 -15 -196.5t-47.5 -198.5t-83 -183.5t-121.5 -152t-163.5 -103.5t-208.5 -38h-484zM350 233h168q78 0 138 29t104 77.5t74 112t48 132.5t25.5 138.5t7.5 131.5q0 159 -70.5 238t-195.5 79h-168z " />
<glyph unicode="E" horiz-adv-x="1120" d="M57 0l197 1405h885l-33 -234h-625l-47 -335h537l-33 -234h-537l-53 -369h639l-33 -233h-897z" />
<glyph unicode="F" horiz-adv-x="1026" d="M57 0l199 1405h815l-31 -234h-559l-49 -354h475l-33 -233h-475l-82 -584h-260z" />
<glyph unicode="G" horiz-adv-x="1307" d="M92 512q0 103 15 211t48 210t85 192.5t125 158t169.5 107t217.5 39.5q116 0 209 -31.5t158.5 -95.5t100.5 -161t35 -227h-266v19q0 133 -61 201.5t-166 68.5q-83 0 -145 -32.5t-107 -86.5t-74.5 -124t-47.5 -146t-25 -152t-7 -141q0 -152 60.5 -236.5t191.5 -84.5 q73 0 129.5 24.5t97.5 68.5t67 106.5t38 138.5h-313l32 225h578l-107 -764h-167l-25 156q-71 -84 -166.5 -132.5t-220.5 -48.5q-109 0 -194.5 32.5t-144 99t-89.5 167.5t-31 238z" />
<glyph unicode="H" horiz-adv-x="1212" d="M57 0l197 1405h260l-80 -569h438l78 569h260l-196 -1405h-260l86 602h-439l-84 -602h-260z" />
<glyph unicode="I" horiz-adv-x="467" d="M37 0l196 1405h261l-197 -1405h-260z" />
<glyph unicode="J" d="M4 264q0 9 0.5 19t3 28.5t6.5 49.5t11 81h247q-5 -37 -8 -59t-4.5 -34t-1.5 -17v-8q0 -60 32 -91.5t95 -31.5t97.5 39.5t45.5 113.5l148 1051h260l-152 -1071q-24 -177 -126.5 -268t-272.5 -91q-184 0 -282.5 73.5t-98.5 215.5z" />
<glyph unicode="K" horiz-adv-x="1212" d="M57 0l197 1405h262l-98 -692l590 692h307l-498 -576l313 -829h-286l-221 629l-254 -271l-50 -358h-262z" />
<glyph unicode="L" horiz-adv-x="1026" d="M57 0l197 1405h260l-162 -1159h588l-35 -246h-848z" />
<glyph unicode="M" horiz-adv-x="1399" d="M43 0l197 1405h362l64 -774q1 -17 2.5 -40t3 -48.5t2.5 -53t2 -52.5q2 -60 4 -124h8q18 70 35 132q7 27 14.5 54.5t15 53.5t14.5 48.5t13 37.5l277 766h354l-197 -1405h-239l125 895q3 23 9.5 61.5t13.5 74.5q8 42 18 89h-8l-400 -1120h-225l-88 1120h-8q-4 -49 -8 -92 q-2 -18 -3.5 -37.5t-3 -37.5t-3.5 -33t-3 -25l-127 -895h-221z" />
<glyph unicode="N" horiz-adv-x="1212" d="M57 0l197 1405h229l322 -774q5 -14 12.5 -36t15.5 -43q8 -25 17 -52l6 6q2 27 5 50q2 20 4.5 39t4.5 28l109 782h231l-196 -1405h-232l-321 774q-5 11 -12 32.5t-15 43.5q-9 26 -18 55l-8 -6q-2 -23 -4 -45q-2 -19 -4.5 -38.5t-4.5 -33.5l-108 -782h-230z" />
<glyph unicode="O" horiz-adv-x="1307" d="M92 512q0 103 15 211t48 210t85 192.5t125.5 158t170 107t218.5 39.5q123 0 219.5 -33t164 -99.5t103 -168t35.5 -238.5q0 -103 -15.5 -211t-48.5 -209.5t-85.5 -192t-126.5 -158t-170.5 -106.5t-217.5 -39q-123 0 -219.5 32.5t-163 99t-102 167.5t-35.5 238zM356 522 q0 -152 60 -236.5t186 -84.5q82 0 144.5 32.5t108 86t75.5 124t47.5 146t25 151t7.5 140.5q0 153 -61 238t-185 85q-83 0 -145.5 -32.5t-108 -86.5t-75 -124t-47.5 -146t-25 -152t-7 -141z" />
<glyph unicode="P" horiz-adv-x="1120" d="M57 0l197 1405h485q99 0 172.5 -27t122 -75.5t72.5 -115t24 -145.5q0 -112 -36 -203.5t-99 -157t-148.5 -101t-184.5 -35.5h-269l-78 -545h-258zM426 776h221q47 0 86.5 15.5t68 44.5t44.5 70.5t16 94.5q0 78 -44 124t-126 46h-211z" />
<glyph unicode="Q" horiz-adv-x="1307" d="M92 512q0 103 15 211t48 210t85 192.5t125.5 158t170 107t218.5 39.5q123 0 219.5 -33t164 -99.5t103 -168t35.5 -238.5q0 -83 -10 -169t-31 -170t-53.5 -163t-78 -147t-104.5 -123t-133 -90l230 -283h-318l-172 229q-121 1 -216.5 34t-161.5 99.5t-101 167t-35 236.5z M356 522q0 -152 60 -236.5t186 -84.5q82 0 144.5 32.5t108 86t75.5 124t47.5 146t25 151t7.5 140.5q0 153 -61 238t-185 85q-83 0 -145.5 -32.5t-108 -86.5t-75 -124t-47.5 -146t-25 -152t-7 -141z" />
<glyph unicode="R" horiz-adv-x="1212" d="M57 0l197 1405h551q102 0 177.5 -25t126 -71t75 -109.5t24.5 -140.5q0 -76 -20.5 -143t-59 -121.5t-93.5 -94.5t-124 -63l189 -637h-281l-164 586h-258l-80 -586h-260zM430 817h277q103 0 162 54.5t59 150.5q0 69 -38.5 109t-123.5 40h-285z" />
<glyph unicode="S" horiz-adv-x="1120" d="M63 352q0 18 1 36.5t3 36t3.5 31t3.5 21.5h270q-3 -12 -6.5 -36t-3.5 -62q0 -27 7.5 -58t30.5 -58t65 -44.5t110 -17.5q54 0 96 15t70 40.5t42.5 58.5t14.5 68q0 54 -25.5 93t-67.5 68.5t-95 54t-109 50t-109 55.5t-95 71.5t-67.5 97.5t-25.5 133q0 76 25 152t81 136.5 t147 98t222 37.5q133 0 218.5 -35.5t134.5 -95.5t67.5 -140t18.5 -168h-265q0 45 -10.5 83.5t-33.5 67t-58.5 44.5t-85.5 16q-17 0 -48 -4t-62 -18.5t-53.5 -43.5t-22.5 -79q0 -48 25.5 -81t67 -59t94.5 -48t108.5 -47t108.5 -56.5t94.5 -76.5t67 -106.5t25.5 -146.5 q0 -111 -39.5 -196.5t-108.5 -144.5t-162.5 -89.5t-201.5 -30.5q-52 0 -106.5 9t-106.5 27.5t-98 48.5t-80.5 71.5t-55 96.5t-20.5 124z" />
<glyph unicode="T" horiz-adv-x="1026" d="M131 1171l33 234h950l-33 -234h-346l-164 -1171h-258l164 1171h-346z" />
<glyph unicode="U" horiz-adv-x="1212" d="M121 360q0 18 6 72.5t15.5 131.5t22 169.5t25.5 185.5q31 219 70 486h260q-39 -264 -69 -477q-13 -91 -25 -179.5t-21.5 -160.5t-15.5 -121t-6 -59q0 -103 50.5 -155t144.5 -52q102 0 164.5 67t80.5 197l131 940h260l-133 -948q-17 -119 -59 -209t-106 -150.5 t-149.5 -91.5t-188.5 -31q-109 0 -194 25t-143.5 73.5t-89 120.5t-30.5 166z" />
<glyph unicode="V" horiz-adv-x="1120" d="M137 1405h266l146 -999h8l426 999h262l-620 -1405h-260z" />
<glyph unicode="W" horiz-adv-x="1585" d="M137 1405h258l43 -1061h8q9 39 19 76q8 32 17.5 65t17.5 56l286 864h297l45 -1061h9l18 72q8 30 17 64.5t18 60.5l285 864h229l-483 -1405h-277l-63 895q-2 19 -2 40v87q0 21 1 37q0 18 1 35h-11q-9 -40 -19 -77q-8 -32 -17 -66t-17 -56l-299 -895h-276z" />
<glyph unicode="X" horiz-adv-x="1120" d="M-59 0l510 733l-279 672h287l168 -428h8l280 428h291l-469 -672l310 -733h-291l-195 487h-8l-328 -487h-284z" />
<glyph unicode="Y" horiz-adv-x="1120" d="M137 1405h266l203 -617h8l367 617h264l-545 -875l-75 -530h-258l73 530z" />
<glyph unicode="Z" horiz-adv-x="1026" d="M-25 0l9 100l702 1071h-512l33 234h876l-8 -102l-704 -1070h569l-33 -233h-932z" />
<glyph unicode="[" horiz-adv-x="559" d="M-12 -330l254 1835h407l-26 -194h-170l-203 -1446h170l-27 -195h-405z" />
<glyph unicode="\" horiz-adv-x="467" d="M119 1505h166l118 -1605h-167z" />
<glyph unicode="]" horiz-adv-x="559" d="M-53 -330l26 195h168l203 1446h-170l27 194h407l-256 -1835h-405z" />
<glyph unicode="^" horiz-adv-x="981" d="M8 602l432 803h219l209 -803h-225l-129 553l-270 -553h-236z" />
<glyph unicode="_" d="M-90 -270l16 141h932l-18 -141h-930z" />
<glyph unicode="`" horiz-adv-x="559" d="M176 1475l4 6h246l137 -271h-203z" />
<glyph unicode="a" d="M45 356q0 195 35 336t92.5 232t131 134.5t149.5 43.5q85 0 140.5 -41t84.5 -113l41 129h190q-36 -229 -64 -410q-12 -78 -23.5 -152.5t-20 -134.5t-14 -98t-5.5 -42q0 -31 14 -44.5t35 -13.5h37l-24 -174q-19 -11 -48.5 -22t-72.5 -11q-68 0 -111.5 38t-58.5 106 q-20 -38 -46 -65t-54.5 -44.5t-58.5 -26t-58 -8.5q-137 0 -214 95t-77 286zM289 389q0 -99 26 -151t84 -52q43 0 75 27t55.5 70.5t38.5 98.5t24 111t12.5 108.5t3.5 90.5q0 94 -22.5 146.5t-85.5 52.5q-43 0 -75 -29t-55.5 -75t-39 -102.5t-24.5 -112.5t-13 -104.5t-4 -78.5 z" />
<glyph unicode="b" horiz-adv-x="1026" d="M47 0l205 1481h244l-72 -510q45 60 112 95.5t144 35.5q61 0 112 -23t87.5 -70t56.5 -120.5t20 -173.5q0 -69 -8.5 -151t-28 -164t-51 -159t-78 -136t-109.5 -94.5t-144 -35.5q-87 0 -151.5 39.5t-98.5 128.5l-49 -143h-191zM348 385q0 -90 31 -138t102 -48q49 0 85 26.5 t61 70t40.5 97.5t24.5 109.5t12 106.5t3 87q0 90 -29 136.5t-98 46.5q-48 0 -84 -26t-62 -68.5t-42.5 -95.5t-26 -108t-13.5 -106.5t-4 -89.5z" />
<glyph unicode="c" d="M74 352q0 84 8 172.5t28 172t54.5 157t87.5 129t126.5 87.5t172.5 32q176 0 255 -99t79 -301v-30h-250v30q0 94 -21.5 143.5t-81.5 49.5q-44 0 -76.5 -32t-55.5 -81.5t-38 -110t-23.5 -116.5t-11.5 -100.5t-3 -63.5q0 -103 22 -156t88 -53q33 0 60 17.5t48 47.5t36 69 t24 83h244q-19 -85 -50.5 -162t-81.5 -135t-123 -92.5t-175 -34.5q-172 0 -257 92t-85 285z" />
<glyph unicode="d" horiz-adv-x="1026" d="M74 356q0 195 36.5 336t95.5 232t135 134.5t155 43.5q85 0 140.5 -36.5t86.5 -104.5l76 520h241l-204 -1481h-199v156q-57 -97 -126 -139t-144 -42q-140 0 -216.5 95.5t-76.5 285.5zM322 381q0 -89 29 -135.5t100 -46.5q48 0 83.5 26t61 68t42 95.5t26 108.5t13 106 t3.5 89q0 90 -28.5 138.5t-96.5 48.5q-51 0 -88 -27t-63 -70t-42 -97.5t-25 -110t-12 -106.5t-3 -87z" />
<glyph unicode="e" d="M68 352q0 89 8.5 179t29.5 173.5t56 156t88 126t126 84.5t169 31q334 0 334 -367q0 -60 -5.5 -126.5t-17.5 -131.5h-539q-3 -32 -3.5 -57.5t-0.5 -36.5q0 -105 25.5 -157t87.5 -52q31 0 56 16t44.5 43.5t33 63.5t22.5 76h252q-19 -81 -51 -153t-81.5 -126.5t-120 -86.5 t-165.5 -32q-177 0 -262.5 92t-85.5 285zM344 655h283q1 22 2 36t1.5 22.5t0.5 12.5v9q0 82 -22.5 125t-78.5 43q-38 0 -68 -21t-52.5 -55.5t-38.5 -79t-27 -92.5z" />
<glyph unicode="f" horiz-adv-x="559" d="M-174 -348l27 182h90q46 0 72 25t32 73l123 938h-107l29 207h107l18 131q8 54 27.5 106t54 92.5t86.5 65.5t125 25q21 0 45 -2t47 -5.5t44 -8t36 -8.5l-27 -183h-98q-42 0 -67 -22t-31 -66l-17 -125h185l-29 -207h-184l-127 -954q-7 -54 -25.5 -105.5t-52.5 -92.5 t-84.5 -66t-122.5 -25q-22 0 -46.5 2t-48 6t-45 8t-36.5 9z" />
<glyph unicode="g" horiz-adv-x="1026" d="M14 -49h250q0 -56 30.5 -86.5t98.5 -30.5q171 0 205 217l16 111q-21 -29 -48.5 -53.5t-58.5 -42t-65.5 -27.5t-70.5 -10q-62 0 -116 20.5t-94 63.5t-63.5 110t-23.5 160q0 67 8.5 146.5t28 159t51.5 154.5t78.5 132.5t109.5 92t144 34.5q83 0 148.5 -40t100.5 -128 l48 143h192l-137 -977q-18 -126 -56 -215.5t-97 -147t-138 -84t-178 -26.5q-92 0 -160.5 26.5t-113.5 71t-67 103t-22 123.5zM324 401q0 -80 34 -120.5t99 -40.5q46 0 80.5 24t59.5 62.5t41.5 87.5t26 99t13.5 97t4 82q0 90 -31 138.5t-102 48.5q-49 0 -85 -25.5t-61 -67 t-40.5 -94t-24 -105.5t-11.5 -102t-3 -84z" />
<glyph unicode="h" horiz-adv-x="1026" d="M47 0l205 1481h244l-74 -516q24 29 51.5 54t60 43.5t71 29t83.5 10.5q129 0 194.5 -74t65.5 -203q0 -14 -1 -27.5t-4.5 -41.5t-10.5 -78.5t-19 -137.5t-30 -218.5t-43 -321.5h-242q24 177 41 300t28.5 204t17.5 127t9 69.5t3.5 31t0.5 11.5q0 72 -27.5 104t-90.5 32 q-36 0 -68.5 -15t-59 -44.5t-45.5 -73t-26 -99.5l-90 -647h-244z" />
<glyph unicode="i" horiz-adv-x="467" d="M47 0l150 1077h243l-149 -1077h-244zM221 1257l31 224h244l-31 -224h-244z" />
<glyph unicode="j" horiz-adv-x="467" d="M-184 -348l24 182h88q48 0 74.5 25t34.5 73l158 1145h243l-162 -1161q-8 -54 -26 -105.5t-51.5 -92.5t-84 -66t-122.5 -25q-23 0 -48 2t-48.5 6t-44 8t-35.5 9zM221 1257l31 224h242l-31 -224h-242z" />
<glyph unicode="k" d="M47 0l205 1481h244l-113 -807l340 403h276l-376 -442l241 -635h-258l-155 440l-115 -112l-45 -328h-244z" />
<glyph unicode="l" horiz-adv-x="467" d="M45 0l205 1481h244l-205 -1481h-244z" />
<glyph unicode="m" horiz-adv-x="1493" d="M49 0l152 1077h198v-139q22 34 49.5 64t61 52.5t73 35t87.5 12.5q94 0 150.5 -46.5t76.5 -129.5q24 37 52 69t62.5 56t76 37.5t92.5 13.5q118 0 178.5 -74t60.5 -203q0 -14 -1 -27.5t-4 -41.5t-10 -78.5t-19 -137.5t-30 -218.5t-44 -321.5h-244q24 177 41.5 299.5 t28.5 203.5t17.5 127.5t10 72t4 36.5t0.5 21q0 54 -23 86.5t-77 32.5q-31 0 -60 -15t-53 -44t-42 -72.5t-25 -100.5l-86 -647h-244q24 177 40.5 299.5t28 203.5t17.5 127.5t9.5 72t4 36.5t0.5 21q0 54 -22 86.5t-76 32.5q-32 0 -61 -15t-53 -44t-41.5 -72.5t-24.5 -100.5 l-88 -647h-244z" />
<glyph unicode="n" horiz-adv-x="1026" d="M47 0l150 1077h198v-143q24 35 53 66t65 53.5t79.5 35.5t95.5 13q129 0 194.5 -74t65.5 -203q0 -14 -1 -27.5t-4.5 -41.5t-10.5 -78.5t-19 -137.5t-30 -218.5t-43 -321.5h-242q24 177 40.5 300t28 204t17.5 127t9.5 69.5t4 31t0.5 11.5q0 72 -27.5 104t-90.5 32 q-36 0 -69 -15t-60 -44.5t-46 -73t-26 -99.5l-88 -647h-244z" />
<glyph unicode="o" horiz-adv-x="1026" d="M74 369q0 79 8.5 164t30 166.5t57.5 154.5t91 128t131.5 87.5t178.5 32.5q189 0 285 -98.5t96 -301.5q0 -79 -8.5 -164t-30 -165.5t-57.5 -153t-91 -126.5t-131.5 -86t-178.5 -32q-188 0 -284.5 96t-96.5 298zM326 375q0 -96 32.5 -144.5t104.5 -48.5q56 0 95.5 33 t66 84.5t41.5 113.5t22.5 120t9.5 104t2 65q0 94 -32.5 143.5t-104.5 49.5q-56 0 -95.5 -33t-66 -84.5t-41.5 -113.5t-22.5 -119.5t-9.5 -104t-2 -65.5z" />
<glyph unicode="p" horiz-adv-x="1026" d="M0 -352l197 1429h198v-157q55 98 125 140t146 42q139 0 215.5 -95.5t76.5 -285.5q0 -195 -36 -336t-95.5 -232t-135 -134.5t-154.5 -43.5q-87 0 -142.5 37t-87.5 105l-65 -469h-242zM352 385q0 -90 30.5 -138t102.5 -48q49 0 85 26.5t61 70t40.5 97.5t24.5 109.5 t12 106.5t3 87q0 90 -29 136.5t-100 46.5q-48 0 -84 -26t-61.5 -68.5t-42 -95.5t-26 -108t-13 -106.5t-3.5 -89.5z" />
<glyph unicode="q" horiz-adv-x="1026" d="M74 362q0 69 8.5 151t28 164t51.5 159t78.5 136t109.5 94.5t144 35.5q85 0 149.5 -40t99.5 -128l48 143h192l-197 -1429h-243l61 458q-43 -61 -109.5 -96t-144.5 -35q-62 0 -112.5 23t-87 70t-56.5 120t-20 174zM324 381q0 -90 28.5 -136t98.5 -46q48 0 84 26t61.5 68 t42 95.5t26 108.5t13.5 106t4 89q0 90 -31 138.5t-102 48.5q-49 0 -85 -27t-61 -70t-40.5 -97.5t-24 -110t-11.5 -106.5t-3 -87z" />
<glyph unicode="r" horiz-adv-x="653" d="M47 0l150 1077h198v-164q16 33 37 66.5t48 61t60.5 44.5t75.5 17q24 0 42 -3t31 -6q15 -4 26 -8l-31 -237h-78q-40 0 -77.5 -12t-69 -40.5t-54 -76t-32.5 -119.5l-84 -600h-242z" />
<glyph unicode="s" d="M45 254q0 17 2 34.5t4 31.5q3 16 6 30h250l-4 -20q-2 -8 -3 -16.5t-1 -14.5q0 -36 13 -59.5t34 -38t48.5 -20t56.5 -5.5q21 0 44.5 6t43 19.5t32.5 34.5t13 51q0 40 -19 66.5t-50 46t-70.5 34.5t-81 32.5t-81 40t-70.5 57t-50 83.5t-19 119q0 83 32 146t86.5 105 t126.5 63.5t153 21.5q100 0 166 -28.5t105.5 -76t56 -109t16.5 -126.5h-248q0 30 -4.5 55.5t-17.5 44t-37 29t-62 10.5q-24 0 -45.5 -7.5t-38 -21t-26 -33.5t-9.5 -44q0 -37 19 -61.5t50.5 -42.5t72 -32t82 -30.5t82 -38.5t72 -55t50.5 -81t19 -116q0 -98 -34 -167 t-91 -112.5t-131 -63.5t-154 -20q-90 0 -162 19t-122.5 55t-77.5 88t-27 117z" />
<glyph unicode="t" horiz-adv-x="559" d="M70 870l28 207h109l41 303h256l-55 -303h155l-29 -207h-153q-25 -168 -43 -303q-8 -57 -16 -112.5t-14 -100t-9.5 -73t-3.5 -31.5q0 -68 74 -68h67l-24 -182q-13 -5 -31.5 -9t-39 -8t-41 -6t-38.5 -2q-62 0 -103.5 18t-66.5 48.5t-36 70.5t-11 85q0 9 4 43t10.5 83.5 t14.5 109t17 120.5q20 143 46 317h-108z" />
<glyph unicode="u" horiz-adv-x="1026" d="M78 252q0 14 1 27.5t4.5 41.5t10.5 78.5t19 137.5t30 218.5t43 321.5h242q-24 -177 -40.5 -300t-28 -204t-17.5 -127t-9.5 -69.5t-4 -31t-0.5 -11.5q0 -71 27.5 -103t90.5 -32q36 0 69 15t60 44.5t45.5 72.5t26.5 99l88 647h244l-150 -1077h-200v139q-25 -35 -54.5 -64.5 t-65 -52t-78 -35t-93.5 -12.5q-129 0 -194.5 74t-65.5 203z" />
<glyph unicode="v" d="M90 1077h244l76 -463q2 -15 4.5 -37.5t5 -48t5 -53t4.5 -53.5q5 -62 11 -131h9l42 126q9 26 18 53.5t18.5 53.5t18.5 49t17 41l199 463h248l-490 -1077h-248z" />
<glyph unicode="w" horiz-adv-x="1307" d="M86 1077h231l37 -444q5 -57 8.5 -119t5.5 -114q3 -61 5 -119h8q10 55 22 115q11 51 26.5 113t35.5 122l153 446h246l27 -448q2 -41 3.5 -99.5t2.5 -114.5q1 -65 2 -134h8q16 65 34 128q15 54 32.5 113.5t34.5 106.5l151 448h219l-407 -1077h-242l-35 514q-3 42 -5 91.5 t-4 92.5q-2 50 -3 99h-12q-4 -48 -11 -97q-6 -42 -16.5 -91t-24.5 -93l-176 -516h-243z" />
<glyph unicode="x" d="M-51 0l399 557l-227 520h264l119 -305h10l203 305h264l-373 -520l242 -557h-264l-133 346h-11l-233 -346h-260z" />
<glyph unicode="y" d="M-14 -354l22 188h111q52 0 102 38.5t84 127.5l-205 1077h246l90 -506q5 -31 10.5 -78.5t9.5 -92.5q4 -53 9 -109h8q15 53 31 104q14 44 29.5 91.5t29.5 82.5l203 508h242l-433 -1022q-38 -87 -81.5 -165t-97 -136.5t-117 -92.5t-140.5 -34q-74 0 -113.5 8.5t-39.5 10.5z " />
<glyph unicode="z" horiz-adv-x="840" d="M-25 0l9 104l510 766h-383l28 207h715l-8 -102l-514 -768h422l-29 -207h-750z" />
<glyph unicode="{" horiz-adv-x="653" d="M35 496l26 188q28 0 56.5 6.5t53 20.5t42 37.5t23.5 58.5l57 395q14 97 55 156.5t101 92t134 43.5t154 11l-20 -157q-27 0 -56.5 -5t-55 -18.5t-44.5 -38t-24 -63.5q-14 -102 -35 -200.5t-37 -201.5q-9 -52 -27 -93t-48 -69.5t-73.5 -43.5t-103.5 -15l-2 -20 q54 0 90.5 -12t59 -35.5t32.5 -57t10 -76.5q0 -21 -3.5 -59t-8.5 -85t-11.5 -97.5t-11.5 -95.5t-8.5 -79.5t-3.5 -48.5q0 -32 13 -52t34 -31t47 -15t52 -4l-21 -158q-73 0 -139 9.5t-116.5 36t-80.5 74t-30 124.5q0 19 1 31.5t3 27.5q13 96 22.5 163t16 113t10.5 72.5 t6.5 41.5t3 20.5t0.5 9.5q0 26 -12 44.5t-32 30t-45.5 17t-53.5 7.5z" />
<glyph unicode="|" horiz-adv-x="471" d="M143 -354v1835h185v-1835h-185z" />
<glyph unicode="}" horiz-adv-x="653" d="M-57 -326l20 158q27 0 56.5 5t55 18.5t44.5 38t24 63.5q14 102 34.5 200t37.5 201q9 52 27 93.5t48 70t73.5 43.5t103.5 15l2 20q-54 0 -90.5 12t-59.5 35t-33 56.5t-10 76.5q0 20 3.5 58.5t9 85.5t11.5 97.5t11.5 95.5t9 79.5t3.5 48.5q0 32 -13.5 52t-34.5 31.5 t-47 15.5t-51 4l21 157q73 0 139 -9.5t116.5 -35.5t80.5 -74t30 -124q0 -19 -1 -31.5t-3 -28.5q-13 -96 -22.5 -163t-16 -112.5t-10.5 -72.5t-6.5 -41.5t-3 -20.5t-0.5 -10q0 -26 12 -44t32 -29.5t45.5 -17.5t53.5 -7l-27 -188q-27 0 -55.5 -6.5t-53 -20.5t-42 -38 t-23.5 -58l-57 -396q-14 -97 -55 -156.5t-101 -92t-134 -43.5t-154 -11z" />
<glyph unicode="~" horiz-adv-x="981" d="M41 403l35 246q32 42 73 75q35 28 85.5 51.5t113.5 23.5q49 0 91 -19.5t82.5 -43t83 -43t93.5 -19.5q36 0 70 10.5t63.5 26.5t54.5 34.5t43.5 35t29 28t12.5 13.5l-35 -244q-32 -42 -73 -75q-35 -29 -85.5 -52t-113.5 -23q-50 0 -91.5 19.5t-82.5 43t-83.5 43t-93.5 19.5 q-54 0 -102.5 -22.5t-85.5 -50t-59.5 -51t-24.5 -26.5z" />
<glyph unicode="&#xa1;" horiz-adv-x="559" d="M16 -328l213 1002h168l-67 -1002h-314zM190 797l41 280h283l-41 -280h-283z" />
<glyph unicode="&#xa2;" d="M74 516q0 81 7.5 166.5t25.5 166t50 153t80 128.5t115.5 91.5t157.5 42.5l31 217h98l-31 -219q146 -16 211.5 -114t65.5 -282v-30h-234v30q0 82 -14.5 132t-56.5 67l-101 -727q26 10 48 32t39.5 52t30.5 66t21 75h228q-18 -81 -48 -155t-76.5 -132t-112.5 -94.5 t-158 -42.5l-33 -239h-99l33 243q-139 16 -208.5 107.5t-69.5 265.5zM307 555q0 -90 15.5 -144.5t58.5 -72.5l100 725q-36 -18 -63 -57.5t-46.5 -90t-32 -106.5t-19.5 -106.5t-10 -90t-3 -57.5z" />
<glyph unicode="&#xa3;" d="M-14 0l30 221h103l51 369h-127l29 207h125l32 225q29 204 133.5 306t270.5 102q79 0 142 -19.5t106.5 -59t66.5 -98.5t23 -137q0 -20 -2 -44t-8 -66h-242q4 25 6 41t3.5 26.5t2 16.5t0.5 12q0 60 -29.5 90.5t-78.5 30.5q-56 0 -93.5 -36.5t-48.5 -111.5l-39 -278h244 l-29 -207h-245l-72 -369h498l-33 -221h-819z" />
<glyph unicode="&#xa4;" d="M0 356l102 103q-27 52 -42 113.5t-15 127.5q0 131 55 238l-100 102l123 127l86 -86q54 47 119 74t139 27q71 0 136.5 -27t119.5 -74l86 86l123 -127l-101 -100q28 -54 43 -114t15 -126q0 -68 -16 -128.5t-44 -114.5l103 -101l-125 -125l-86 86q-54 -45 -118.5 -70.5 t-135.5 -25.5q-72 0 -137 25.5t-119 70.5l-86 -86zM217 700q0 -61 20 -114.5t54 -93.5t79.5 -63t96.5 -23t96 23t78.5 63t53.5 93.5t20 114.5q0 62 -20 116.5t-53.5 94.5t-78.5 63t-96 23t-96.5 -23t-79.5 -63t-54 -94.5t-20 -116.5z" />
<glyph unicode="&#xa5;" d="M37 313l22 166h283l20 144h-282l22 165h213l-174 617h260l121 -539h8l265 539h254l-349 -617h213l-22 -167h-283l-20 -142h282l-22 -166h-283l-45 -313h-244l46 313h-285z" />
<glyph unicode="&#xa6;" horiz-adv-x="471" d="M143 -354v762h185v-762h-185zM143 719v762h185v-762h-185z" />
<glyph unicode="&#xa7;" d="M16 -121q0 12 1.5 27t4 28t4 22t1.5 11h247q-2 -9 -3 -18t-1 -19q0 -52 31 -77t82 -25q62 0 98.5 36.5t36.5 96.5q0 46 -19 80.5t-50.5 62t-71 51t-81.5 49t-81.5 54t-71 67t-50.5 88.5t-19 117q0 42 11.5 85t34 83.5t55.5 77t75 66.5q-34 37 -53 85.5t-19 114.5 q0 97 32.5 169.5t88.5 121t130.5 73t158.5 24.5q74 0 137 -17t109 -49t72 -78.5t26 -105.5q0 -12 -1.5 -27t-3.5 -28.5t-3.5 -23.5t-1.5 -11h-248q2 9 2 17v17q0 54 -30 79.5t-81 25.5q-62 0 -98.5 -36.5t-36.5 -98.5q0 -46 19 -80t50.5 -62t71 -51.5t81.5 -48.5t81.5 -53.5 t71 -67t50.5 -88.5t19 -117q0 -89 -46 -170.5t-130 -140.5q32 -38 52 -87.5t20 -115.5q0 -97 -33 -169t-89 -120t-130.5 -72t-157.5 -24q-75 0 -138 17t-109 49t-71.5 79t-25.5 107zM326 584q0 -52 20.5 -89.5t54 -67.5t75.5 -55.5t85 -52.5q25 29 43.5 66.5t18.5 85.5 q0 51 -21 89t-55 68t-76.5 55t-85.5 52q-59 -65 -59 -151z" />
<glyph unicode="&#xa8;" horiz-adv-x="559" d="M143 1257l29 224h205l-31 -224h-203zM500 1257l30 224h205l-30 -224h-205z" />
<glyph unicode="&#xa9;" horiz-adv-x="1237" d="M33 702q0 166 40 300.5t116 229.5t184 146.5t245 51.5t245.5 -51.5t184.5 -146.5t116 -229.5t40 -300.5t-40 -300t-116 -229t-184.5 -146.5t-245.5 -51.5t-245 51.5t-184 146.5t-116 229t-40 300zM147 702q0 -140 32.5 -253.5t93.5 -193.5t148 -123.5t197 -43.5 t197.5 43.5t148.5 123.5t93.5 193.5t32.5 253.5q0 141 -32.5 254.5t-93.5 193.5t-148.5 123.5t-197.5 43.5t-197 -43.5t-148 -123.5t-93.5 -193.5t-32.5 -254.5zM293 702q0 110 22.5 191t65 134.5t103.5 79.5t139 26q65 0 121 -19t97 -58.5t64 -101t23 -145.5h-178 q0 87 -35 128.5t-92 41.5q-76 0 -113 -65t-37 -181v-59q0 -116 38.5 -181t117.5 -65q57 0 92 40.5t35 127.5h172q0 -81 -23 -141.5t-63.5 -100.5t-96.5 -60t-122 -20q-78 0 -139 26t-103.5 78.5t-65 133t-22.5 190.5z" />
<glyph unicode="&#xaa;" horiz-adv-x="621" d="M143 997q0 132 23.5 226.5t62.5 156t88.5 90.5t100.5 29q57 0 94 -27t57 -75l56 86h100q-25 -154 -43 -276q-8 -52 -16 -102.5t-14 -90.5t-9.5 -65.5t-3.5 -28.5q0 -22 9.5 -30.5t23.5 -8.5h26l-16 -117q-14 -8 -33.5 -15.5t-48.5 -7.5q-46 0 -75 25t-40 72 q-27 -51 -67.5 -74t-77.5 -23q-93 0 -145 64t-52 192zM307 1020q0 -66 18 -101.5t56 -35.5q29 0 51 18t37.5 47t26 66t16 75t8 73t2.5 61q0 65 -15 100t-58 35q-28 0 -49.5 -19.5t-37.5 -50.5t-26.5 -69t-17 -75.5t-9 -70.5t-2.5 -53z" />
<glyph unicode="&#xab;" d="M57 668l328 409h195l-279 -409l162 -410h-187zM432 668l328 409h194l-278 -409l162 -410h-187z" />
<glyph unicode="&#xac;" horiz-adv-x="981" d="M82 717l32 231h852l-80 -565h-227l47 334h-624z" />
<glyph unicode="&#xad;" horiz-adv-x="559" d="M27 432l34 242h494l-35 -242h-493z" />
<glyph unicode="&#xae;" horiz-adv-x="1237" d="M33 702q0 166 40 300.5t116 229.5t184 146.5t245 51.5t245.5 -51.5t184.5 -146.5t116 -229.5t40 -300.5t-40 -300t-116 -229t-184.5 -146.5t-245.5 -51.5t-245 51.5t-184 146.5t-116 229t-40 300zM147 702q0 -140 32.5 -253.5t93.5 -193.5t148 -123.5t197 -43.5 t197.5 43.5t148.5 123.5t93.5 193.5t32.5 253.5q0 141 -32.5 254.5t-93.5 193.5t-148.5 123.5t-197.5 43.5t-197 -43.5t-148 -123.5t-93.5 -193.5t-32.5 -254.5zM356 287v831h324q50 0 92.5 -15.5t73 -43t48 -66t17.5 -84.5q0 -41 -10 -72.5t-27.5 -55.5t-41 -40t-50.5 -26 v-8q15 -6 36 -18.5t40 -38t32 -65.5t13 -100q0 -38 4 -64t12 -43t19 -26.5t25 -13.5v-41q-5 -3 -14.5 -6t-21 -5t-23.5 -3.5t-21 -1.5q-29 0 -57 6.5t-50 24t-35.5 48t-13.5 78.5q0 56 -10.5 92.5t-27.5 57.5t-39 29t-44 8h-74v-338h-176zM532 782h84q51 0 83 26.5t32 68.5 q0 38 -29.5 59.5t-78.5 21.5h-91v-176z" />
<glyph unicode="&#xaf;" horiz-adv-x="559" d="M4 1227l27 178h522l-27 -178h-522z" />
<glyph unicode="&#xb0;" horiz-adv-x="819" d="M115 1139q0 60 22.5 113t62 92.5t92.5 62.5t114 23q60 0 113 -23t92.5 -62.5t62 -92.5t22.5 -113q0 -61 -22.5 -114t-62 -92.5t-92.5 -62t-113 -22.5q-61 0 -114 22.5t-92.5 62t-62 92.5t-22.5 114zM254 1139q0 -32 12 -59.5t32.5 -48t48 -32.5t59.5 -12q31 0 58 12 t47.5 32.5t32 48t11.5 59.5q0 31 -11.5 58.5t-32 47.5t-47.5 31.5t-58 11.5q-32 0 -59.5 -11.5t-48 -31.5t-32.5 -47.5t-12 -58.5z" />
<glyph unicode="&#xb1;" horiz-adv-x="1124" d="M53 0l29 211h844l-29 -211h-844zM143 649l31 213h315l50 357h211l-50 -357h318l-31 -213h-317l-49 -354h-211l49 354h-316z" />
<glyph unicode="&#xb2;" horiz-adv-x="559" d="M47 655l6 37q9 68 42 124.5t77 106t93 95t89.5 90t67.5 91t27 99.5q0 23 -12 42.5t-44 19.5q-37 0 -60.5 -40t-35.5 -130h-162q0 61 17.5 117.5t52 100t86 69.5t119.5 26q45 0 83.5 -10t67 -31t44.5 -54.5t16 -80.5q0 -55 -16 -103.5t-43 -93t-62.5 -85t-73.5 -80 t-77 -78.5t-73 -80h279l-23 -152h-485z" />
<glyph unicode="&#xb3;" horiz-adv-x="559" d="M92 850q0 10 1 25.5t7 50.5h168q-6 -35 -7 -47.5t-1 -18.5q0 -80 70 -80q37 0 65.5 34.5t28.5 111.5q0 24 -6 40.5t-16 26t-23 13.5t-27 4h-41l21 137h43q14 0 29.5 9t28.5 27.5t21.5 45.5t8.5 63q0 37 -14.5 53.5t-38.5 16.5q-32 0 -54.5 -29.5t-31.5 -105.5h-168 q10 69 33.5 120.5t58 86t78 52t92.5 17.5t89 -12.5t68.5 -37t44 -61.5t15.5 -85q0 -44 -10 -78t-28 -60t-43 -46.5t-54 -37.5q40 -21 66 -62t26 -101q0 -65 -22 -117.5t-59.5 -89.5t-86 -56.5t-102.5 -19.5q-115 0 -172.5 57t-57.5 154z" />
<glyph unicode="&#xb4;" horiz-adv-x="559" d="M287 1210l176 271h246l2 -6l-222 -265h-202z" />
<glyph unicode="&#xb5;" horiz-adv-x="1022" d="M-2 -352l197 1429h241q-24 -177 -40.5 -300t-28 -204t-17.5 -127t-9.5 -69.5t-4 -31t-0.5 -11.5q0 -71 31.5 -103t87.5 -32q35 0 68 15t60 44.5t45.5 72.5t26.5 99l88 647h244l-149 -1077h-201v139q-21 -35 -46 -64.5t-55.5 -52t-67 -35t-81.5 -12.5q-28 0 -52.5 6 t-45.5 17l-47 -350h-244z" />
<glyph unicode="&#xb6;" d="M90 883q0 132 38.5 230t103 163t148 97t173.5 32h489l-22 -156h-98l-226 -1603h-166l226 1603h-109l-225 -1603h-164l123 866q-65 9 -119 40t-92 80t-59 113t-21 138z" />
<glyph unicode="&#xb7;" horiz-adv-x="467" d="M123 569l39 269h248l-39 -269h-248z" />
<glyph unicode="&#xb8;" horiz-adv-x="559" d="M47 -356l14 100h146q37 0 59.5 12t22.5 49q0 19 -15 28t-49 9h-67l47 181h139l-22 -91q29 -2 55 -9.5t45.5 -21.5t31 -35t11.5 -50q0 -59 -23 -95.5t-59 -57.5t-80 -28.5t-86 -7.5q-43 0 -89 4.5t-81 12.5z" />
<glyph unicode="&#xb9;" horiz-adv-x="559" d="M80 655l20 142h152l67 477h-153l14 115q24 3 55.5 11.5t65.5 20.5t67.5 27.5t61.5 32.5h82l-96 -684h135l-21 -142h-450z" />
<glyph unicode="&#xba;" horiz-adv-x="612" d="M113 1008q0 53 6 110.5t20 112t38.5 103.5t62 86.5t89 59t120.5 21.5q126 0 191 -66t65 -202q0 -54 -6 -111t-20.5 -111.5t-39 -103t-61.5 -85t-88.5 -58t-120.5 -21.5q-126 0 -191 64.5t-65 200.5zM283 1012q0 -65 21 -97t71 -32q38 0 64.5 22t44 56.5t28 76.5t15.5 81 t6.5 70t1.5 44q0 63 -21.5 96t-71.5 33q-38 0 -64.5 -22t-44 -56.5t-27.5 -76.5t-15 -81t-6.5 -70t-1.5 -44z" />
<glyph unicode="&#xbb;" d="M18 258l279 410l-164 409h186l222 -409l-330 -410h-193zM391 258l281 410l-164 409h186l221 -409l-329 -410h-195z" />
<glyph unicode="&#xbc;" horiz-adv-x="1401" d="M49 580l21 141h151l68 477h-154l15 115q24 3 55.5 11.5t65.5 20.5t67.5 27.5t60.5 32.5h82l-96 -684h135l-20 -141h-451zM184 -25l1012 1455h135l-1009 -1455h-138zM766 182l16 125q39 56 77.5 121.5t75 135.5t70 142t62.5 142h162q-29 -78 -69 -159t-81.5 -152t-79 -127 t-61.5 -86h139l10 75q15 23 36 58.5t41.5 73.5t38.5 74.5t28 62.5h55l-47 -344h86l-20 -142h-86l-27 -182h-162l27 182h-291z" />
<glyph unicode="&#xbd;" horiz-adv-x="1401" d="M49 580l21 141h151l68 477h-154l15 115q24 3 55.5 11.5t65.5 20.5t67.5 27.5t60.5 32.5h82l-96 -684h135l-20 -141h-451zM152 -25l1011 1455h135l-1009 -1455h-137zM784 0l7 37q9 67 42 123.5t76.5 106.5t92.5 95t89.5 90t67.5 91.5t27 99.5q0 23 -11.5 42.5t-44.5 19.5 q-37 0 -60 -40.5t-36 -129.5h-162q0 60 17.5 116.5t52.5 100t86 70t119 26.5q45 0 84 -10t67 -31t44 -54.5t16 -80.5q0 -55 -16 -104t-43 -93t-62.5 -84.5t-73.5 -80t-76.5 -78.5t-72.5 -80h278l-22 -152h-486z" />
<glyph unicode="&#xbe;" horiz-adv-x="1401" d="M61 770q0 10 1 25.5t8 50.5h168q-7 -35 -8 -47.5t-1 -18.5q0 -80 70 -80q37 0 65.5 34.5t28.5 111.5q0 24 -6 40.5t-16 26t-23 13.5t-26 4h-41l20 137h43q14 0 29.5 9t28.5 27.5t21.5 45.5t8.5 63q0 38 -14 54t-39 16q-32 0 -54.5 -29.5t-31.5 -105.5h-168 q10 69 34 120.5t58 86t77.5 52t92.5 17.5t89 -12.5t68.5 -37t44 -61.5t15.5 -85q0 -44 -10 -77.5t-28 -60t-43 -46.5t-54 -37q40 -22 66 -63t26 -101q0 -65 -22 -117.5t-59.5 -89.5t-86 -56.5t-102.5 -19.5q-115 0 -172.5 57t-57.5 154zM164 -25l1012 1455h135l-1010 -1455 h-137zM778 182l17 125q39 56 77.5 121.5t74.5 135.5t69.5 142t62.5 142h162q-19 -52 -43.5 -106t-51.5 -105.5t-55 -99.5t-54 -88.5t-48.5 -72.5t-38.5 -52h140l10 75q15 23 36 58.5t41.5 73.5t38 74.5t27.5 62.5h55l-47 -344h86l-20 -142h-86l-27 -182h-162l27 182h-291z " />
<glyph unicode="&#xbf;" horiz-adv-x="1026" d="M98 -45q0 95 23 164t58 123t77 97t80 84.5t66.5 87.5t37.5 105l9 58h256l-13 -88q-8 -59 -35 -107t-63 -92t-75 -86t-72 -87t-54.5 -96.5t-21.5 -113.5q0 -20 5 -44t19 -44.5t39 -34.5t66 -14q52 0 87 25.5t56 65.5t30 87.5t9 91.5h256q0 -98 -30.5 -186.5t-89.5 -155.5 t-145.5 -107t-199.5 -40q-88 0 -157.5 22t-118 62.5t-74 97t-25.5 125.5zM451 797l41 280h280l-41 -280h-280z" />
<glyph unicode="&#xc0;" horiz-adv-x="1212" d="M-53 0l643 1405h301l252 -1405h-266l-46 276h-501l-121 -276h-262zM434 510h359l-62 385q-6 40 -10.5 87t-7.5 89q-4 48 -6 96h-9q-14 -51 -30 -99q-14 -42 -30.5 -88.5t-33.5 -84.5zM509 1803l4 6h246l137 -271h-203z" />
<glyph unicode="&#xc1;" horiz-adv-x="1212" d="M-53 0l643 1405h301l252 -1405h-266l-46 276h-501l-121 -276h-262zM434 510h359l-62 385q-6 40 -10.5 87t-7.5 89q-4 48 -6 96h-9q-14 -51 -30 -99q-14 -42 -30.5 -88.5t-33.5 -84.5zM627 1538l176 271h246l2 -6l-222 -265h-202z" />
<glyph unicode="&#xc2;" horiz-adv-x="1212" d="M-53 0l643 1405h301l252 -1405h-266l-46 276h-501l-121 -276h-262zM434 510h359l-62 385q-6 40 -10.5 87t-7.5 89q-4 48 -6 96h-9q-14 -51 -30 -99q-14 -42 -30.5 -88.5t-33.5 -84.5zM479 1532l213 277h201l135 -277h-184l-70 142l-104 -142h-191z" />
<glyph unicode="&#xc3;" horiz-adv-x="1212" d="M-53 0l643 1405h301l252 -1405h-266l-46 276h-501l-121 -276h-262zM427 1559q0 40 16 84.5t46 81t72.5 60.5t96.5 24q37 0 69.5 -12t63 -26t61 -26t64.5 -12q32 0 55 16t36 60h133q0 -42 -16.5 -86.5t-47 -81t-74 -59.5t-98.5 -23q-36 0 -68 12t-62.5 26t-61 26t-64.5 12 q-32 0 -55 -17t-35 -59h-131zM434 510h359l-62 385q-6 40 -10.5 87t-7.5 89q-4 48 -6 96h-9q-14 -51 -30 -99q-14 -42 -30.5 -88.5t-33.5 -84.5z" />
<glyph unicode="&#xc4;" horiz-adv-x="1212" d="M-53 0l643 1405h301l252 -1405h-266l-46 276h-501l-121 -276h-262zM434 510h359l-62 385q-6 40 -10.5 87t-7.5 89q-4 48 -6 96h-9q-14 -51 -30 -99q-14 -42 -30.5 -88.5t-33.5 -84.5zM483 1585l29 224h205l-31 -224h-203zM840 1585l30 224h205l-30 -224h-205z" />
<glyph unicode="&#xc5;" horiz-adv-x="1212" d="M-53 0l643 1405h301l252 -1405h-266l-46 276h-501l-121 -276h-262zM434 510h359l-62 385q-6 40 -10.5 87t-7.5 89q-4 48 -6 96h-9q-14 -51 -30 -99q-14 -42 -30.5 -88.5t-33.5 -84.5zM578 1674q0 40 15.5 76t42 62.5t62.5 42t77 15.5t77 -15.5t62.5 -42.5t41.5 -62.5 t15 -75.5q0 -41 -15.5 -77t-42 -62.5t-62.5 -42t-76 -15.5t-76 15t-63 41.5t-42.5 62.5t-15.5 78zM680 1674q0 -41 27 -68t68 -27q19 0 36 7t30 20t20.5 30.5t7.5 37.5t-7.5 37t-20.5 30t-30 20t-36 7q-41 0 -68 -27t-27 -67z" />
<glyph unicode="&#xc6;" horiz-adv-x="1679" d="M-106 0l727 1405h1081l-33 -234h-711l35 -335h541l-33 -234h-485l37 -369h497l-32 -233h-705l-25 276h-491l-137 -276h-266zM412 510h354l-59 657h-9q-14 -50 -29 -99q-13 -42 -30 -89t-35 -84z" />
<glyph unicode="&#xc7;" horiz-adv-x="1212" d="M92 512q0 108 14.5 218t46 212t81 191t119.5 155t162 104t208 38q111 0 200 -32.5t152 -97.5t97 -163t34 -228v-26h-266v37q0 137 -57.5 210.5t-159.5 73.5q-75 0 -131 -32.5t-97 -86.5t-67.5 -124t-42.5 -146t-22.5 -152t-6.5 -141q0 -153 56.5 -237t175.5 -84 q69 0 121.5 25.5t91 69.5t63.5 101.5t39 122.5h256q-23 -107 -67.5 -203.5t-112.5 -170.5t-160.5 -119.5t-210.5 -50.5l-10 -44q29 -2 55 -9.5t45.5 -21.5t31 -35t11.5 -50q0 -59 -23 -95.5t-59 -57.5t-80 -28.5t-86 -7.5q-43 0 -89 4.5t-81 12.5l14 100h146q37 0 59.5 12 t22.5 49q0 19 -15 28t-49 9h-67l36 141q-181 28 -279.5 159t-98.5 370z" />
<glyph unicode="&#xc8;" horiz-adv-x="1120" d="M57 0l197 1405h885l-33 -234h-625l-47 -335h537l-33 -234h-537l-53 -369h639l-33 -233h-897zM477 1802l4 6h246l137 -270h-202z" />
<glyph unicode="&#xc9;" horiz-adv-x="1120" d="M57 0l197 1405h885l-33 -234h-625l-47 -335h537l-33 -234h-537l-53 -369h639l-33 -233h-897zM596 1538l176 270h246l2 -6l-221 -264h-203z" />
<glyph unicode="&#xca;" horiz-adv-x="1120" d="M57 0l197 1405h885l-33 -234h-625l-47 -335h537l-33 -234h-537l-53 -369h639l-33 -233h-897zM449 1532l213 276h200l135 -276h-184l-70 141l-104 -141h-190z" />
<glyph unicode="&#xcb;" horiz-adv-x="1120" d="M57 0l197 1405h885l-33 -234h-625l-47 -335h537l-33 -234h-537l-53 -369h639l-33 -233h-897zM453 1585l28 223h205l-31 -223h-202zM809 1585l31 223h204l-30 -223h-205z" />
<glyph unicode="&#xcc;" horiz-adv-x="467" d="M37 0l196 1405h261l-197 -1405h-260zM137 1803l4 6h246l137 -271h-203z" />
<glyph unicode="&#xcd;" horiz-adv-x="467" d="M37 0l196 1405h261l-197 -1405h-260zM255 1538l176 271h246l2 -6l-222 -265h-202z" />
<glyph unicode="&#xce;" horiz-adv-x="467" d="M37 0l196 1405h261l-197 -1405h-260zM107 1532l213 277h201l135 -277h-184l-70 142l-104 -142h-191z" />
<glyph unicode="&#xcf;" horiz-adv-x="467" d="M37 0l196 1405h261l-197 -1405h-260zM111 1585l29 224h205l-31 -224h-203zM468 1585l30 224h205l-30 -224h-205z" />
<glyph unicode="&#xd0;" horiz-adv-x="1212" d="M47 639l23 174h100l84 592h432q117 0 208.5 -33.5t155 -100t97 -166.5t33.5 -233q0 -95 -15 -196.5t-47.5 -198.5t-83 -183.5t-121.5 -152t-163.5 -103.5t-208.5 -38h-484l88 639h-98zM350 233h168q78 0 138 29t104 77.5t74 112t48 132.5t25.5 138.5t7.5 131.5 q0 159 -70.5 238t-195.5 79h-168l-51 -358h254l-25 -174h-253z" />
<glyph unicode="&#xd1;" horiz-adv-x="1212" d="M57 0l197 1405h229l322 -774q5 -14 12.5 -36t15.5 -43q8 -25 17 -52l6 6q2 27 5 50q2 20 4.5 39t4.5 28l109 782h231l-196 -1405h-232l-321 774q-5 11 -12 32.5t-15 43.5q-9 26 -18 55l-8 -6q-2 -23 -4 -45q-2 -19 -4.5 -38.5t-4.5 -33.5l-108 -782h-230zM426 1559 q0 40 16 84t46 81t72.5 60.5t96.5 23.5q37 0 69.5 -11.5t63 -26t61 -26t64.5 -11.5q32 0 55 16t36 59h133q0 -42 -16.5 -86t-47 -80.5t-74 -59.5t-98.5 -23q-36 0 -68 11.5t-62.5 26t-61 26t-64.5 11.5q-32 0 -55 -16.5t-35 -58.5h-131z" />
<glyph unicode="&#xd2;" horiz-adv-x="1307" d="M92 512q0 103 15 211t48 210t85 192.5t125.5 158t170 107t218.5 39.5q123 0 219.5 -33t164 -99.5t103 -168t35.5 -238.5q0 -103 -15.5 -211t-48.5 -209.5t-85.5 -192t-126.5 -158t-170.5 -106.5t-217.5 -39q-123 0 -219.5 32.5t-163 99t-102 167.5t-35.5 238zM356 522 q0 -152 60 -236.5t186 -84.5q82 0 144.5 32.5t108 86t75.5 124t47.5 146t25 151t7.5 140.5q0 153 -61 238t-185 85q-83 0 -145.5 -32.5t-108 -86.5t-75 -124t-47.5 -146t-25 -152t-7 -141zM558 1803l4 6h246l137 -271h-203z" />
<glyph unicode="&#xd3;" horiz-adv-x="1307" d="M92 512q0 103 15 211t48 210t85 192.5t125.5 158t170 107t218.5 39.5q123 0 219.5 -33t164 -99.5t103 -168t35.5 -238.5q0 -103 -15.5 -211t-48.5 -209.5t-85.5 -192t-126.5 -158t-170.5 -106.5t-217.5 -39q-123 0 -219.5 32.5t-163 99t-102 167.5t-35.5 238zM356 522 q0 -152 60 -236.5t186 -84.5q82 0 144.5 32.5t108 86t75.5 124t47.5 146t25 151t7.5 140.5q0 153 -61 238t-185 85q-83 0 -145.5 -32.5t-108 -86.5t-75 -124t-47.5 -146t-25 -152t-7 -141zM676 1538l176 271h246l2 -6l-222 -265h-202z" />
<glyph unicode="&#xd4;" horiz-adv-x="1307" d="M92 512q0 103 15 211t48 210t85 192.5t125.5 158t170 107t218.5 39.5q123 0 219.5 -33t164 -99.5t103 -168t35.5 -238.5q0 -103 -15.5 -211t-48.5 -209.5t-85.5 -192t-126.5 -158t-170.5 -106.5t-217.5 -39q-123 0 -219.5 32.5t-163 99t-102 167.5t-35.5 238zM356 522 q0 -152 60 -236.5t186 -84.5q82 0 144.5 32.5t108 86t75.5 124t47.5 146t25 151t7.5 140.5q0 153 -61 238t-185 85q-83 0 -145.5 -32.5t-108 -86.5t-75 -124t-47.5 -146t-25 -152t-7 -141zM528 1532l213 277h201l135 -277h-184l-70 142l-104 -142h-191z" />
<glyph unicode="&#xd5;" horiz-adv-x="1307" d="M92 512q0 103 15 211t48 210t85 192.5t125.5 158t170 107t218.5 39.5q123 0 219.5 -33t164 -99.5t103 -168t35.5 -238.5q0 -103 -15.5 -211t-48.5 -209.5t-85.5 -192t-126.5 -158t-170.5 -106.5t-217.5 -39q-123 0 -219.5 32.5t-163 99t-102 167.5t-35.5 238zM356 522 q0 -152 60 -236.5t186 -84.5q82 0 144.5 32.5t108 86t75.5 124t47.5 146t25 151t7.5 140.5q0 153 -61 238t-185 85q-83 0 -145.5 -32.5t-108 -86.5t-75 -124t-47.5 -146t-25 -152t-7 -141zM476 1559q0 40 16 84.5t46 81t72.5 60.5t96.5 24q37 0 69.5 -12t63 -26t61 -26 t64.5 -12q32 0 55 16t36 60h133q0 -42 -16.5 -86.5t-47 -81t-74 -59.5t-98.5 -23q-36 0 -68 12t-62.5 26t-61 26t-64.5 12q-32 0 -55 -17t-35 -59h-131z" />
<glyph unicode="&#xd6;" horiz-adv-x="1307" d="M92 512q0 103 15 211t48 210t85 192.5t125.5 158t170 107t218.5 39.5q123 0 219.5 -33t164 -99.5t103 -168t35.5 -238.5q0 -103 -15.5 -211t-48.5 -209.5t-85.5 -192t-126.5 -158t-170.5 -106.5t-217.5 -39q-123 0 -219.5 32.5t-163 99t-102 167.5t-35.5 238zM356 522 q0 -152 60 -236.5t186 -84.5q82 0 144.5 32.5t108 86t75.5 124t47.5 146t25 151t7.5 140.5q0 153 -61 238t-185 85q-83 0 -145.5 -32.5t-108 -86.5t-75 -124t-47.5 -146t-25 -152t-7 -141zM532 1585l29 224h205l-31 -224h-203zM889 1585l30 224h205l-30 -224h-205z" />
<glyph unicode="&#xd7;" horiz-adv-x="981" d="M12 227l340 297l-256 299l168 148l256 -299l340 299l127 -148l-342 -299l258 -297l-168 -147l-258 299l-338 -299z" />
<glyph unicode="&#xd8;" horiz-adv-x="1307" d="M92 -76l125 195q-125 134 -125 393q0 103 15 211t48 210t85 192.5t125.5 158t170 107t218.5 39.5q81 0 151 -14.5t127 -43.5l72 109h172l-127 -195q62 -68 94.5 -166t32.5 -229q0 -103 -15.5 -211t-48.5 -209.5t-85.5 -192t-126.5 -158t-170.5 -106.5t-217.5 -39 q-81 0 -150 15t-128 43l-70 -109h-172zM356 522q0 -46 5 -85.5t16 -74.5l522 805q-26 19 -60.5 28t-74.5 9q-83 0 -145.5 -32.5t-108 -86.5t-75 -124t-47.5 -146t-25 -152t-7 -141zM467 236q53 -35 135 -35t144.5 32.5t108 86t75.5 124t47.5 146t25 151t7.5 140.5 q0 45 -6 84t-17 73z" />
<glyph unicode="&#xd9;" horiz-adv-x="1212" d="M121 360q0 18 6 72.5t15.5 131.5t22 169.5t25.5 185.5q31 219 70 486h260q-39 -264 -69 -477q-13 -91 -25 -179.5t-21.5 -160.5t-15.5 -121t-6 -59q0 -103 50.5 -155t144.5 -52q102 0 164.5 67t80.5 197l131 940h260l-133 -948q-17 -119 -59 -209t-106 -150.5 t-149.5 -91.5t-188.5 -31q-109 0 -194 25t-143.5 73.5t-89 120.5t-30.5 166zM508 1802l4 6h246l137 -270h-203z" />
<glyph unicode="&#xda;" horiz-adv-x="1212" d="M121 360q0 18 6 72.5t15.5 131.5t22 169.5t25.5 185.5q31 219 70 486h260q-39 -264 -69 -477q-13 -91 -25 -179.5t-21.5 -160.5t-15.5 -121t-6 -59q0 -103 50.5 -155t144.5 -52q102 0 164.5 67t80.5 197l131 940h260l-133 -948q-17 -119 -59 -209t-106 -150.5 t-149.5 -91.5t-188.5 -31q-109 0 -194 25t-143.5 73.5t-89 120.5t-30.5 166zM627 1538l176 270h246l2 -6l-222 -264h-202z" />
<glyph unicode="&#xdb;" horiz-adv-x="1212" d="M121 360q0 18 6 72.5t15.5 131.5t22 169.5t25.5 185.5q31 219 70 486h260q-39 -264 -69 -477q-13 -91 -25 -179.5t-21.5 -160.5t-15.5 -121t-6 -59q0 -103 50.5 -155t144.5 -52q102 0 164.5 67t80.5 197l131 940h260l-133 -948q-17 -119 -59 -209t-106 -150.5 t-149.5 -91.5t-188.5 -31q-109 0 -194 25t-143.5 73.5t-89 120.5t-30.5 166zM479 1532l213 276h201l135 -276h-184l-70 141l-104 -141h-191z" />
<glyph unicode="&#xdc;" horiz-adv-x="1212" d="M121 360q0 18 6 72.5t15.5 131.5t22 169.5t25.5 185.5q31 219 70 486h260q-39 -264 -69 -477q-13 -91 -25 -179.5t-21.5 -160.5t-15.5 -121t-6 -59q0 -103 50.5 -155t144.5 -52q102 0 164.5 67t80.5 197l131 940h260l-133 -948q-17 -119 -59 -209t-106 -150.5 t-149.5 -91.5t-188.5 -31q-109 0 -194 25t-143.5 73.5t-89 120.5t-30.5 166zM483 1585l29 223h205l-31 -223h-203zM840 1585l30 223h205l-31 -223h-204z" />
<glyph unicode="&#xdd;" horiz-adv-x="1120" d="M137 1405h266l203 -617h8l367 617h264l-545 -875l-75 -530h-258l73 530zM587 1538l176 271h246l2 -6l-222 -265h-202z" />
<glyph unicode="&#xde;" horiz-adv-x="1120" d="M57 0l197 1405h260l-35 -254h226q99 0 172.5 -27t122 -75.5t72.5 -115t24 -145.5q0 -112 -36 -203.5t-99.5 -157t-149 -101t-184.5 -35.5h-269l-41 -291h-260zM391 522h221q47 0 86.5 15.5t68 44.5t44.5 71t16 95q0 77 -44 123.5t-126 46.5h-211z" />
<glyph unicode="&#xdf;" horiz-adv-x="1026" d="M35 0l145 1065q16 117 59.5 200.5t106.5 137t141.5 78t165.5 24.5q84 0 153 -23t118.5 -66.5t76.5 -106.5t27 -144q0 -56 -18 -111.5t-50 -103.5t-76.5 -85t-97.5 -56v-8q43 -18 78 -50.5t59.5 -76t38 -95.5t13.5 -108q0 -87 -34 -171t-94.5 -151t-143 -108t-179.5 -41 h-151l28 209h105q42 0 82 21.5t70.5 57t49.5 82t19 97.5q0 42 -11.5 78t-32.5 62.5t-50 41.5t-64 15h-106l33 231h100q33 0 65.5 20.5t58.5 55.5t42 80.5t16 95.5q0 68 -35 109.5t-106 41.5q-84 0 -140.5 -55.5t-70.5 -161.5l-152 -1081h-239z" />
<glyph unicode="&#xe0;" d="M45 356q0 195 35 336t92.5 232t131 134.5t149.5 43.5q85 0 140.5 -41t84.5 -113l41 129h190q-36 -229 -64 -410q-12 -78 -23.5 -152.5t-20 -134.5t-14 -98t-5.5 -42q0 -31 14 -44.5t35 -13.5h37l-24 -174q-19 -11 -48.5 -22t-72.5 -11q-68 0 -111.5 38t-58.5 106 q-20 -38 -46 -65t-54.5 -44.5t-58.5 -26t-58 -8.5q-137 0 -214 95t-77 286zM289 389q0 -99 26 -151t84 -52q43 0 75 27t55.5 70.5t38.5 98.5t24 111t12.5 108.5t3.5 90.5q0 94 -22.5 146.5t-85.5 52.5q-43 0 -75 -29t-55.5 -75t-39 -102.5t-24.5 -112.5t-13 -104.5t-4 -78.5 zM293 1475l4 6h246l137 -271h-203z" />
<glyph unicode="&#xe1;" d="M45 356q0 195 35 336t92.5 232t131 134.5t149.5 43.5q85 0 140.5 -41t84.5 -113l41 129h190q-36 -229 -64 -410q-12 -78 -23.5 -152.5t-20 -134.5t-14 -98t-5.5 -42q0 -31 14 -44.5t35 -13.5h37l-24 -174q-19 -11 -48.5 -22t-72.5 -11q-68 0 -111.5 38t-58.5 106 q-20 -38 -46 -65t-54.5 -44.5t-58.5 -26t-58 -8.5q-137 0 -214 95t-77 286zM289 389q0 -99 26 -151t84 -52q43 0 75 27t55.5 70.5t38.5 98.5t24 111t12.5 108.5t3.5 90.5q0 94 -22.5 146.5t-85.5 52.5q-43 0 -75 -29t-55.5 -75t-39 -102.5t-24.5 -112.5t-13 -104.5t-4 -78.5 zM412 1210l176 271h246l2 -6l-222 -265h-202z" />
<glyph unicode="&#xe2;" d="M45 356q0 195 35 336t92.5 232t131 134.5t149.5 43.5q85 0 140.5 -41t84.5 -113l41 129h190q-36 -229 -64 -410q-12 -78 -23.5 -152.5t-20 -134.5t-14 -98t-5.5 -42q0 -31 14 -44.5t35 -13.5h37l-24 -174q-19 -11 -48.5 -22t-72.5 -11q-68 0 -111.5 38t-58.5 106 q-20 -38 -46 -65t-54.5 -44.5t-58.5 -26t-58 -8.5q-137 0 -214 95t-77 286zM264 1204l213 277h201l135 -277h-184l-70 142l-104 -142h-191zM289 389q0 -99 26 -151t84 -52q43 0 75 27t55.5 70.5t38.5 98.5t24 111t12.5 108.5t3.5 90.5q0 94 -22.5 146.5t-85.5 52.5 q-43 0 -75 -29t-55.5 -75t-39 -102.5t-24.5 -112.5t-13 -104.5t-4 -78.5z" />
<glyph unicode="&#xe3;" d="M45 356q0 195 35 336t92.5 232t131 134.5t149.5 43.5q85 0 140.5 -41t84.5 -113l41 129h190q-36 -229 -64 -410q-12 -78 -23.5 -152.5t-20 -134.5t-14 -98t-5.5 -42q0 -31 14 -44.5t35 -13.5h37l-24 -174q-19 -11 -48.5 -22t-72.5 -11q-68 0 -111.5 38t-58.5 106 q-20 -38 -46 -65t-54.5 -44.5t-58.5 -26t-58 -8.5q-137 0 -214 95t-77 286zM211 1231q0 40 16 84.5t46 81t72.5 60.5t96.5 24q37 0 69.5 -12t63 -26t61 -26t64.5 -12q32 0 55 16t36 60h133q0 -42 -16.5 -86.5t-47 -81t-74 -59.5t-98.5 -23q-36 0 -68 12t-62.5 26t-61 26 t-64.5 12q-32 0 -55 -17t-35 -59h-131zM289 389q0 -99 26 -151t84 -52q43 0 75 27t55.5 70.5t38.5 98.5t24 111t12.5 108.5t3.5 90.5q0 94 -22.5 146.5t-85.5 52.5q-43 0 -75 -29t-55.5 -75t-39 -102.5t-24.5 -112.5t-13 -104.5t-4 -78.5z" />
<glyph unicode="&#xe4;" d="M45 356q0 195 35 336t92.5 232t131 134.5t149.5 43.5q85 0 140.5 -41t84.5 -113l41 129h190q-36 -229 -64 -410q-12 -78 -23.5 -152.5t-20 -134.5t-14 -98t-5.5 -42q0 -31 14 -44.5t35 -13.5h37l-24 -174q-19 -11 -48.5 -22t-72.5 -11q-68 0 -111.5 38t-58.5 106 q-20 -38 -46 -65t-54.5 -44.5t-58.5 -26t-58 -8.5q-137 0 -214 95t-77 286zM268 1257l29 224h205l-31 -224h-203zM289 389q0 -99 26 -151t84 -52q43 0 75 27t55.5 70.5t38.5 98.5t24 111t12.5 108.5t3.5 90.5q0 94 -22.5 146.5t-85.5 52.5q-43 0 -75 -29t-55.5 -75 t-39 -102.5t-24.5 -112.5t-13 -104.5t-4 -78.5zM625 1257l30 224h205l-31 -224h-204z" />
<glyph unicode="&#xe5;" d="M45 356q0 195 35 336t92.5 232t131 134.5t149.5 43.5q85 0 140.5 -41t84.5 -113l41 129h190q-36 -229 -64 -410q-12 -78 -23.5 -152.5t-20 -134.5t-14 -98t-5.5 -42q0 -31 14 -44.5t35 -13.5h37l-24 -174q-19 -11 -48.5 -22t-72.5 -11q-68 0 -111.5 38t-58.5 106 q-20 -38 -46 -65t-54.5 -44.5t-58.5 -26t-58 -8.5q-137 0 -214 95t-77 286zM289 389q0 -99 26 -151t84 -52q43 0 75 27t55.5 70.5t38.5 98.5t24 111t12.5 108.5t3.5 90.5q0 94 -22.5 146.5t-85.5 52.5q-43 0 -75 -29t-55.5 -75t-39 -102.5t-24.5 -112.5t-13 -104.5t-4 -78.5 zM362 1346q0 40 15.5 76t42.5 62.5t62.5 42t76.5 15.5q42 0 78 -15.5t62.5 -42.5t41.5 -62.5t15 -75.5q0 -41 -15.5 -77t-42 -62.5t-62.5 -42t-77 -15.5q-40 0 -75.5 15t-62.5 41.5t-43 62.5t-16 78zM465 1346q0 -41 27 -68t67 -27q19 0 36 7t30 20t20.5 30.5t7.5 37.5 t-7.5 37t-20.5 30t-30 20t-36 7q-40 0 -67 -27t-27 -67z" />
<glyph unicode="&#xe6;" horiz-adv-x="1493" d="M39 264q0 75 22.5 133.5t62.5 102t95.5 73t121 48t139 26.5t149.5 8l12 113q2 11 2 21v20q0 40 -19.5 66t-74.5 26q-38 0 -63.5 -11t-42.5 -30t-26.5 -45t-13.5 -57h-237q0 78 29 141.5t82.5 108.5t128 69.5t165.5 24.5q85 0 147.5 -23.5t100.5 -66.5q51 42 116 66 t150 24q334 0 334 -367q0 -60 -5 -126.5t-17 -131.5h-539q-3 -32 -3.5 -57.5t-0.5 -36.5q0 -105 25.5 -157t87.5 -52q31 0 56 16t44 43.5t33 63.5t22 76h252q-18 -81 -50 -153t-82 -126.5t-120.5 -86.5t-165.5 -32q-109 0 -183 34.5t-116 107.5q-63 -63 -141 -102.5 t-184 -39.5q-47 0 -98.5 12t-95 44t-71.5 88t-28 145zM295 274q0 -45 25.5 -69.5t80.5 -24.5q42 0 75.5 19t57.5 51.5t39 75t21 90.5l8 61q-55 0 -110 -9t-98.5 -32t-71 -62t-27.5 -100zM885 655h282q1 22 2 36t1.5 22.5t0.5 12.5v9q0 82 -22 125t-78 43q-38 0 -68 -21 t-52.5 -55.5t-39 -79t-26.5 -92.5z" />
<glyph unicode="&#xe7;" d="M74 352q0 84 8 172.5t28 172t54.5 157t87.5 129t126.5 87.5t172.5 32q176 0 255 -99t79 -301v-30h-250v30q0 94 -21.5 143.5t-81.5 49.5q-44 0 -76.5 -32t-55.5 -81.5t-38 -110t-23.5 -116.5t-11.5 -100.5t-3 -63.5q0 -103 22 -156t88 -53q33 0 60 17.5t48 47.5t36 69 t24 83h244q-18 -80 -47 -153t-74 -130t-109 -93.5t-153 -44.5l-11 -46q29 -2 55 -9.5t45.5 -21.5t31 -35t11.5 -50q0 -59 -23 -95.5t-59 -57.5t-80 -28.5t-86 -7.5q-43 0 -89 4.5t-81 12.5l14 100h146q37 0 59.5 12t22.5 49q0 19 -15 28t-49 9h-67l36 141q-250 43 -250 369z " />
<glyph unicode="&#xe8;" d="M68 352q0 89 8.5 179t29.5 173.5t56 156t88 126t126 84.5t169 31q334 0 334 -367q0 -60 -5.5 -126.5t-17.5 -131.5h-539q-3 -32 -3.5 -57.5t-0.5 -36.5q0 -105 25.5 -157t87.5 -52q31 0 56 16t44.5 43.5t33 63.5t22.5 76h252q-19 -81 -51 -153t-81.5 -126.5t-120 -86.5 t-165.5 -32q-177 0 -262.5 92t-85.5 285zM316 1475l4 6h246l137 -271h-203zM344 655h283q1 22 2 36t1.5 22.5t0.5 12.5v9q0 82 -22.5 125t-78.5 43q-38 0 -68 -21t-52.5 -55.5t-38.5 -79t-27 -92.5z" />
<glyph unicode="&#xe9;" d="M68 352q0 89 8.5 179t29.5 173.5t56 156t88 126t126 84.5t169 31q334 0 334 -367q0 -60 -5.5 -126.5t-17.5 -131.5h-539q-3 -32 -3.5 -57.5t-0.5 -36.5q0 -105 25.5 -157t87.5 -52q31 0 56 16t44.5 43.5t33 63.5t22.5 76h252q-19 -81 -51 -153t-81.5 -126.5t-120 -86.5 t-165.5 -32q-177 0 -262.5 92t-85.5 285zM344 655h283q1 22 2 36t1.5 22.5t0.5 12.5v9q0 82 -22.5 125t-78.5 43q-38 0 -68 -21t-52.5 -55.5t-38.5 -79t-27 -92.5zM434 1210l176 271h246l2 -6l-222 -265h-202z" />
<glyph unicode="&#xea;" d="M68 352q0 89 8.5 179t29.5 173.5t56 156t88 126t126 84.5t169 31q334 0 334 -367q0 -60 -5.5 -126.5t-17.5 -131.5h-539q-3 -32 -3.5 -57.5t-0.5 -36.5q0 -105 25.5 -157t87.5 -52q31 0 56 16t44.5 43.5t33 63.5t22.5 76h252q-19 -81 -51 -153t-81.5 -126.5t-120 -86.5 t-165.5 -32q-177 0 -262.5 92t-85.5 285zM286 1204l213 277h201l135 -277h-184l-70 142l-104 -142h-191zM344 655h283q1 22 2 36t1.5 22.5t0.5 12.5v9q0 82 -22.5 125t-78.5 43q-38 0 -68 -21t-52.5 -55.5t-38.5 -79t-27 -92.5z" />
<glyph unicode="&#xeb;" d="M68 352q0 89 8.5 179t29.5 173.5t56 156t88 126t126 84.5t169 31q334 0 334 -367q0 -60 -5.5 -126.5t-17.5 -131.5h-539q-3 -32 -3.5 -57.5t-0.5 -36.5q0 -105 25.5 -157t87.5 -52q31 0 56 16t44.5 43.5t33 63.5t22.5 76h252q-19 -81 -51 -153t-81.5 -126.5t-120 -86.5 t-165.5 -32q-177 0 -262.5 92t-85.5 285zM290 1257l29 224h205l-31 -224h-203zM344 655h283q1 22 2 36t1.5 22.5t0.5 12.5v9q0 82 -22.5 125t-78.5 43q-38 0 -68 -21t-52.5 -55.5t-38.5 -79t-27 -92.5zM647 1257l30 224h205l-30 -224h-205z" />
<glyph unicode="&#xec;" horiz-adv-x="467" d="M47 0l150 1077h243l-149 -1077h-244zM89 1475l4 6h246l137 -271h-203z" />
<glyph unicode="&#xed;" horiz-adv-x="467" d="M47 0l150 1077h243l-149 -1077h-244zM207 1210l176 271h246l2 -6l-222 -265h-202z" />
<glyph unicode="&#xee;" horiz-adv-x="467" d="M47 0l150 1077h243l-149 -1077h-244zM59 1204l213 277h201l135 -277h-184l-70 142l-104 -142h-191z" />
<glyph unicode="&#xef;" horiz-adv-x="467" d="M47 0l150 1077h243l-149 -1077h-244zM63 1257l29 224h205l-31 -224h-203zM420 1257l30 224h205l-30 -224h-205z" />
<glyph unicode="&#xf0;" horiz-adv-x="1026" d="M68 373q0 179 36.5 315t98.5 228t143.5 139t171.5 47q26 0 55.5 -4.5t51.5 -12.5l8 9q-11 29 -27 61.5t-33 63.5l-264 -23l21 150l153 14q-26 35 -49.5 64t-40.5 49l4 8h254q19 -19 41.5 -43.5t46.5 -55.5l269 25l-21 -150l-156 -14q24 -45 45.5 -97t37 -113t25 -131 t9.5 -150q0 -201 -35 -347.5t-99.5 -242t-157 -141.5t-207.5 -46q-189 0 -285 96.5t-96 301.5zM319 375q0 -96 32.5 -144.5t105.5 -48.5q56 0 95.5 33t66 84.5t41.5 113.5t22.5 120t9.5 104t2 65q0 94 -32.5 143.5t-104.5 49.5q-56 0 -95.5 -33t-66 -84.5t-42 -113.5 t-23 -119.5t-9.5 -104t-2 -65.5z" />
<glyph unicode="&#xf1;" horiz-adv-x="1026" d="M47 0l150 1077h198v-143q24 35 53 66t65 53.5t79.5 35.5t95.5 13q129 0 194.5 -74t65.5 -203q0 -14 -1 -27.5t-4.5 -41.5t-10.5 -78.5t-19 -137.5t-30 -218.5t-43 -321.5h-242q24 177 40.5 300t28 204t17.5 127t9.5 69.5t4 31t0.5 11.5q0 72 -27.5 104t-90.5 32 q-36 0 -69 -15t-60 -44.5t-46 -73t-26 -99.5l-88 -647h-244zM289 1231q0 40 16 84.5t46 81t72.5 60.5t96.5 24q37 0 69.5 -12t63 -26t61 -26t64.5 -12q32 0 55 16t36 60h133q0 -42 -16.5 -86.5t-47 -81t-74 -59.5t-98.5 -23q-36 0 -68 12t-62.5 26t-61 26t-64.5 12 q-32 0 -55 -17t-35 -59h-131z" />
<glyph unicode="&#xf2;" horiz-adv-x="1026" d="M74 369q0 79 8.5 164t30 166.5t57.5 154.5t91 128t131.5 87.5t178.5 32.5q189 0 285 -98.5t96 -301.5q0 -79 -8.5 -164t-30 -165.5t-57.5 -153t-91 -126.5t-131.5 -86t-178.5 -32q-188 0 -284.5 96t-96.5 298zM326 375q0 -96 32.5 -144.5t104.5 -48.5q56 0 95.5 33 t66 84.5t41.5 113.5t22.5 120t9.5 104t2 65q0 94 -32.5 143.5t-104.5 49.5q-56 0 -95.5 -33t-66 -84.5t-41.5 -113.5t-22.5 -119.5t-9.5 -104t-2 -65.5zM361 1475l4 6h246l137 -271h-203z" />
<glyph unicode="&#xf3;" horiz-adv-x="1026" d="M74 369q0 79 8.5 164t30 166.5t57.5 154.5t91 128t131.5 87.5t178.5 32.5q189 0 285 -98.5t96 -301.5q0 -79 -8.5 -164t-30 -165.5t-57.5 -153t-91 -126.5t-131.5 -86t-178.5 -32q-188 0 -284.5 96t-96.5 298zM326 375q0 -96 32.5 -144.5t104.5 -48.5q56 0 95.5 33 t66 84.5t41.5 113.5t22.5 120t9.5 104t2 65q0 94 -32.5 143.5t-104.5 49.5q-56 0 -95.5 -33t-66 -84.5t-41.5 -113.5t-22.5 -119.5t-9.5 -104t-2 -65.5zM479 1210l176 271h246l2 -6l-222 -265h-202z" />
<glyph unicode="&#xf4;" horiz-adv-x="1026" d="M74 369q0 79 8.5 164t30 166.5t57.5 154.5t91 128t131.5 87.5t178.5 32.5q189 0 285 -98.5t96 -301.5q0 -79 -8.5 -164t-30 -165.5t-57.5 -153t-91 -126.5t-131.5 -86t-178.5 -32q-188 0 -284.5 96t-96.5 298zM326 375q0 -96 32.5 -144.5t104.5 -48.5q56 0 95.5 33 t66 84.5t41.5 113.5t22.5 120t9.5 104t2 65q0 94 -32.5 143.5t-104.5 49.5q-56 0 -95.5 -33t-66 -84.5t-41.5 -113.5t-22.5 -119.5t-9.5 -104t-2 -65.5zM331 1204l213 277h201l135 -277h-184l-70 142l-104 -142h-191z" />
<glyph unicode="&#xf5;" horiz-adv-x="1026" d="M74 369q0 79 8.5 164t30 166.5t57.5 154.5t91 128t131.5 87.5t178.5 32.5q189 0 285 -98.5t96 -301.5q0 -79 -8.5 -164t-30 -165.5t-57.5 -153t-91 -126.5t-131.5 -86t-178.5 -32q-188 0 -284.5 96t-96.5 298zM279 1231q0 40 16 84.5t46 81t72.5 60.5t96.5 24 q37 0 69.5 -12t63 -26t61 -26t64.5 -12q32 0 55 16t36 60h133q0 -42 -16.5 -86.5t-47 -81t-74 -59.5t-98.5 -23q-36 0 -68 12t-62.5 26t-61 26t-64.5 12q-32 0 -55 -17t-35 -59h-131zM326 375q0 -96 32.5 -144.5t104.5 -48.5q56 0 95.5 33t66 84.5t41.5 113.5t22.5 120 t9.5 104t2 65q0 94 -32.5 143.5t-104.5 49.5q-56 0 -95.5 -33t-66 -84.5t-41.5 -113.5t-22.5 -119.5t-9.5 -104t-2 -65.5z" />
<glyph unicode="&#xf6;" horiz-adv-x="1026" d="M74 369q0 79 8.5 164t30 166.5t57.5 154.5t91 128t131.5 87.5t178.5 32.5q189 0 285 -98.5t96 -301.5q0 -79 -8.5 -164t-30 -165.5t-57.5 -153t-91 -126.5t-131.5 -86t-178.5 -32q-188 0 -284.5 96t-96.5 298zM326 375q0 -96 32.5 -144.5t104.5 -48.5q56 0 95.5 33 t66 84.5t41.5 113.5t22.5 120t9.5 104t2 65q0 94 -32.5 143.5t-104.5 49.5q-56 0 -95.5 -33t-66 -84.5t-41.5 -113.5t-22.5 -119.5t-9.5 -104t-2 -65.5zM335 1257l29 224h205l-31 -224h-203zM692 1257l30 224h205l-30 -224h-205z" />
<glyph unicode="&#xf7;" horiz-adv-x="1124" d="M51 416l31 213h987l-31 -213h-987zM391 84l33 225h213l-33 -225h-213zM483 735l33 228h213l-33 -228h-213z" />
<glyph unicode="&#xf8;" horiz-adv-x="1026" d="M74 -66l88 146q-45 48 -66.5 120t-21.5 169q0 79 8.5 164t30 166.5t57.5 154.5t91 128t131.5 87.5t178.5 32.5q54 0 100.5 -8.5t84.5 -24.5l45 74h153l-90 -150q88 -102 88 -291q0 -79 -8.5 -164t-30 -165.5t-57.5 -153t-91 -126.5t-131.5 -86t-178.5 -32q-54 0 -100 8 t-85 23l-43 -72h-153zM326 352l313 522q-16 10 -34.5 15.5t-41.5 5.5q-56 0 -95.5 -33t-66 -84.5t-41.5 -113.5t-22.5 -119.5t-9.5 -104t-2 -65.5v-23zM387 201q31 -19 76 -19q56 0 95.5 33t66 84.5t41.5 113.5t22.5 120t9.5 104t2 65v19z" />
<glyph unicode="&#xf9;" horiz-adv-x="1026" d="M78 252q0 14 1 27.5t4.5 41.5t10.5 78.5t19 137.5t30 218.5t43 321.5h242q-24 -177 -40.5 -300t-28 -204t-17.5 -127t-9.5 -69.5t-4 -31t-0.5 -11.5q0 -71 27.5 -103t90.5 -32q36 0 69 15t60 44.5t45.5 72.5t26.5 99l88 647h244l-150 -1077h-200v139q-25 -35 -54.5 -64.5 t-65 -52t-78 -35t-93.5 -12.5q-129 0 -194.5 74t-65.5 203zM353 1475l4 6h246l137 -271h-203z" />
<glyph unicode="&#xfa;" horiz-adv-x="1026" d="M78 252q0 14 1 27.5t4.5 41.5t10.5 78.5t19 137.5t30 218.5t43 321.5h242q-24 -177 -40.5 -300t-28 -204t-17.5 -127t-9.5 -69.5t-4 -31t-0.5 -11.5q0 -71 27.5 -103t90.5 -32q36 0 69 15t60 44.5t45.5 72.5t26.5 99l88 647h244l-150 -1077h-200v139q-25 -35 -54.5 -64.5 t-65 -52t-78 -35t-93.5 -12.5q-129 0 -194.5 74t-65.5 203zM471 1210l176 271h246l2 -6l-222 -265h-202z" />
<glyph unicode="&#xfb;" horiz-adv-x="1026" d="M78 252q0 14 1 27.5t4.5 41.5t10.5 78.5t19 137.5t30 218.5t43 321.5h242q-24 -177 -40.5 -300t-28 -204t-17.5 -127t-9.5 -69.5t-4 -31t-0.5 -11.5q0 -71 27.5 -103t90.5 -32q36 0 69 15t60 44.5t45.5 72.5t26.5 99l88 647h244l-150 -1077h-200v139q-25 -35 -54.5 -64.5 t-65 -52t-78 -35t-93.5 -12.5q-129 0 -194.5 74t-65.5 203zM323 1204l213 277h201l135 -277h-184l-70 142l-104 -142h-191z" />
<glyph unicode="&#xfc;" horiz-adv-x="1026" d="M78 252q0 14 1 27.5t4.5 41.5t10.5 78.5t19 137.5t30 218.5t43 321.5h242q-24 -177 -40.5 -300t-28 -204t-17.5 -127t-9.5 -69.5t-4 -31t-0.5 -11.5q0 -71 27.5 -103t90.5 -32q36 0 69 15t60 44.5t45.5 72.5t26.5 99l88 647h244l-150 -1077h-200v139q-25 -35 -54.5 -64.5 t-65 -52t-78 -35t-93.5 -12.5q-129 0 -194.5 74t-65.5 203zM327 1257l29 224h205l-31 -224h-203zM684 1257l30 224h205l-30 -224h-205z" />
<glyph unicode="&#xfd;" d="M-14 -354l22 188h111q52 0 102 38.5t84 127.5l-205 1077h246l90 -506q5 -31 10.5 -78.5t9.5 -92.5q4 -53 9 -109h8q15 53 31 104q14 44 29.5 91.5t29.5 82.5l203 508h242l-433 -1022q-38 -87 -81.5 -165t-97 -136.5t-117 -92.5t-140.5 -34q-74 0 -113.5 8.5t-39.5 10.5z M449 1210l176 271h246l2 -6l-222 -265h-202z" />
<glyph unicode="&#xfe;" horiz-adv-x="1026" d="M0 -352l252 1833h244l-72 -516q53 72 114.5 104.5t127.5 32.5q139 0 215.5 -95.5t76.5 -285.5q0 -195 -36 -336t-95.5 -232t-135 -134.5t-154.5 -43.5q-87 0 -142.5 37t-87.5 105l-65 -469h-242zM352 385q0 -90 30.5 -138t102.5 -48q49 0 85 26.5t61 70t40.5 97.5 t24.5 109.5t12 106.5t3 87q0 90 -29 136.5t-100 46.5q-48 0 -84 -26t-61.5 -68.5t-42 -95.5t-26 -108t-13 -106.5t-3.5 -89.5z" />
<glyph unicode="&#xff;" d="M-14 -354l22 188h111q52 0 102 38.5t84 127.5l-205 1077h246l90 -506q5 -31 10.5 -78.5t9.5 -92.5q4 -53 9 -109h8q15 53 31 104q14 44 29.5 91.5t29.5 82.5l203 508h242l-433 -1022q-38 -87 -81.5 -165t-97 -136.5t-117 -92.5t-140.5 -34q-74 0 -113.5 8.5t-39.5 10.5z M305 1257l29 224h205l-31 -224h-203zM662 1257l30 224h205l-30 -224h-205z" />
<glyph unicode="&#x152;" horiz-adv-x="1679" d="M82 475q0 63 6 138t19.5 154t35 159t53 153.5t73 137.5t95.5 111.5t120 74.5t147 27q103 0 183 -37.5t132 -114.5l19 127h768l-33 -234h-508l-47 -335h420l-33 -234h-420l-53 -369h522l-31 -233h-782l18 125q-69 -77 -150.5 -113.5t-174.5 -36.5q-89 0 -159.5 30.5 t-119.5 92t-74.5 155.5t-25.5 222zM346 477q0 -146 50 -211t149 -65q62 0 112 25t88.5 79.5t66 140t44.5 205.5q9 63 14.5 107.5t8.5 76t4.5 53.5t1.5 40q0 75 -14 127.5t-41.5 85.5t-67.5 48t-92 15q-119 0 -191 -108.5t-104 -341.5q-9 -63 -15 -107.5t-9 -76t-4 -53.5 t-1 -40z" />
<glyph unicode="&#x153;" horiz-adv-x="1585" d="M82 369q0 79 8.5 164t30 166.5t57.5 154.5t91.5 128t132 87.5t178.5 32.5q204 0 299 -125q54 57 127 91t170 34q333 0 333 -367q0 -60 -5 -126.5t-17 -131.5h-539q-3 -32 -3.5 -57.5t-0.5 -36.5q0 -105 25.5 -157t87.5 -52q31 0 56 16t44 43.5t33 63.5t22 76h252 q-18 -81 -50 -153t-82 -126.5t-120 -86.5t-165 -32q-97 0 -167.5 29.5t-113.5 91.5q-54 -55 -129 -88t-174 -33q-188 0 -284.5 96t-96.5 298zM334 375q0 -96 32.5 -144.5t104.5 -48.5q56 0 95.5 33t66 84.5t42 113.5t23 120t9.5 104t2 65q0 94 -32.5 143.5t-105.5 49.5 q-56 0 -95.5 -33t-66 -84.5t-41.5 -113.5t-22.5 -119.5t-9.5 -104t-2 -65.5zM975 655h282q2 22 3 36t1.5 22.5t0.5 12.5v9q0 82 -22.5 125t-78.5 43q-38 0 -68 -21t-52.5 -55.5t-38.5 -79t-27 -92.5z" />
<glyph unicode="&#x178;" horiz-adv-x="1120" d="M137 1405h266l203 -617h8l367 617h264l-545 -875l-75 -530h-258l73 530zM443 1585l29 224h205l-31 -224h-203zM800 1585l30 224h205l-30 -224h-205z" />
<glyph unicode="&#x2c6;" horiz-adv-x="559" d="M96 1204l213 277h201l135 -277h-184l-70 142l-104 -142h-191z" />
<glyph unicode="&#x2dc;" horiz-adv-x="559" d="M86 1231q0 40 16 84.5t46 81t72.5 60.5t96.5 24q37 0 69.5 -12t63 -26t61 -26t64.5 -12q32 0 55 16t36 60h133q0 -42 -16.5 -86.5t-47 -81t-74 -59.5t-98.5 -23q-36 0 -68 12t-62.5 26t-61 26t-64.5 12q-32 0 -55 -17t-35 -59h-131z" />
<glyph unicode="&#x2000;" horiz-adv-x="935" />
<glyph unicode="&#x2001;" horiz-adv-x="1870" />
<glyph unicode="&#x2002;" horiz-adv-x="935" />
<glyph unicode="&#x2003;" horiz-adv-x="1870" />
<glyph unicode="&#x2004;" horiz-adv-x="623" />
<glyph unicode="&#x2005;" horiz-adv-x="467" />
<glyph unicode="&#x2006;" horiz-adv-x="311" />
<glyph unicode="&#x2007;" horiz-adv-x="311" />
<glyph unicode="&#x2008;" horiz-adv-x="233" />
<glyph unicode="&#x2009;" horiz-adv-x="374" />
<glyph unicode="&#x200a;" horiz-adv-x="103" />
<glyph unicode="&#x2010;" horiz-adv-x="559" d="M27 432l34 242h494l-35 -242h-493z" />
<glyph unicode="&#x2011;" horiz-adv-x="559" d="M27 432l34 242h494l-35 -242h-493z" />
<glyph unicode="&#x2012;" horiz-adv-x="559" d="M27 432l34 242h494l-35 -242h-493z" />
<glyph unicode="&#x2013;" d="M-2 453l25 200h933l-26 -200h-932z" />
<glyph unicode="&#x2014;" horiz-adv-x="1679" d="M-2 453l25 200h1679l-27 -200h-1677z" />
<glyph unicode="&#x2018;" horiz-adv-x="467" d="M131 805l35 256l184 344h148l-150 -320h105l-39 -280h-283z" />
<glyph unicode="&#x2019;" horiz-adv-x="467" d="M143 805l150 319h-105l39 281h283l-35 -256l-184 -344h-148z" />
<glyph unicode="&#x201a;" horiz-adv-x="467" d="M-12 -319l149 319h-104l39 281h282l-35 -256l-184 -344h-147z" />
<glyph unicode="&#x201c;" horiz-adv-x="840" d="M115 805l35 256l184 344h147l-149 -320h104l-39 -280h-282zM489 805l35 256l185 344h147l-149 -320h104l-39 -280h-283z" />
<glyph unicode="&#x201d;" horiz-adv-x="840" d="M143 805l150 319h-105l39 281h283l-35 -256l-184 -344h-148zM518 805l150 319h-105l39 281h283l-35 -256l-184 -344h-148z" />
<glyph unicode="&#x201e;" horiz-adv-x="840" d="M-12 -319l149 319h-104l39 281h282l-35 -256l-184 -344h-147zM362 -319l150 319h-104l38 281h283l-35 -256l-184 -344h-148z" />
<glyph unicode="&#x2022;" horiz-adv-x="588" d="M70 705q0 51 19 97t52 80t78 54t96 20q52 0 97 -20t78.5 -54t53 -80t19.5 -97q0 -52 -19.5 -98t-53 -80.5t-78.5 -55t-97 -20.5q-51 0 -96 20.5t-78 55t-52 80.5t-19 98z" />
<glyph unicode="&#x2026;" horiz-adv-x="1679" d="M74 0l39 281h282l-39 -281h-282zM633 0l39 281h282l-39 -281h-282zM1192 0l39 281h282l-38 -281h-283z" />
<glyph unicode="&#x202f;" horiz-adv-x="374" />
<glyph unicode="&#x2039;" horiz-adv-x="559" d="M66 668l327 409h195l-279 -409l162 -410h-186z" />
<glyph unicode="&#x203a;" horiz-adv-x="559" d="M25 258l278 410l-164 409h187l221 -409l-330 -410h-192z" />
<glyph unicode="&#x205f;" horiz-adv-x="467" />
<glyph unicode="&#x20ac;" d="M12 465l23 166h100q0 17 2.5 35t5.5 36q2 19 5 36.5t6 35.5h-101l25 166h123q43 114 102.5 204.5t140 154t184 97.5t234.5 34q38 0 77 -5t73 -16l-29 -205q-57 19 -129 19q-67 0 -126 -20t-109.5 -56.5t-91.5 -89t-72 -117.5h368l-24 -166h-400q-3 -18 -5.5 -35.5 t-4.5 -36.5q-3 -18 -5.5 -36t-2.5 -35h399l-24 -166h-369q10 -66 33 -118.5t61.5 -89t94.5 -56t133 -19.5q70 0 133 19l-29 -203q-38 -11 -75.5 -17t-78.5 -6q-115 0 -207.5 34t-159.5 97.5t-107.5 154t-51.5 204.5h-121z" />
<glyph unicode="&#x2122;" horiz-adv-x="1679" d="M195 1268l20 137h565l-20 -137h-207l-96 -690h-154l96 690h-204zM729 578l117 827h227l47 -580h8l211 580h213l-116 -827h-148l84 600h-8l-219 -600h-137l-50 600h-10l-84 -600h-135z" />
<glyph unicode="&#xfb01;" horiz-adv-x="1026" d="M-174 -348l27 182h90q46 0 72 25t32 73l123 938h-107l29 207h107l18 131q8 54 27.5 106t54 92.5t86.5 65.5t125 25q21 0 45 -2t47 -5.5t44 -8t36 -8.5l-27 -183h-98q-42 0 -67 -22t-31 -66l-17 -125h185l-29 -207h-184l-127 -954q-7 -54 -25.5 -105.5t-52.5 -92.5 t-84.5 -66t-122.5 -25q-22 0 -46.5 2t-48 6t-45 8t-36.5 9zM606 0l150 1077h243l-149 -1077h-244zM780 1257l31 224h244l-31 -224h-244z" />
<glyph unicode="&#xfb02;" horiz-adv-x="1026" d="M-174 -348l27 182h90q46 0 72 25t32 73l123 938h-107l29 207h107l18 131q8 54 27.5 106t54 92.5t86.5 65.5t125 25q21 0 45 -2t47 -5.5t44 -8t36 -8.5l-27 -183h-98q-42 0 -67 -22t-31 -66l-17 -125h185l-29 -207h-184l-127 -954q-7 -54 -25.5 -105.5t-52.5 -92.5 t-84.5 -66t-122.5 -25q-22 0 -46.5 2t-48 6t-45 8t-36.5 9zM602 0l205 1481h244l-205 -1481h-244z" />
</font>
</defs>
</svg>
