<?xml version="1.0" standalone="no"?>
<!DOCTYPE svg PUBLIC "-//W3C//DTD SVG 1.1//EN" "http://www.w3.org/Graphics/SVG/1.1/DTD/svg11.dtd" >
<svg xmlns="http://www.w3.org/2000/svg">
<metadata></metadata>
<defs>
<font id="archivo_narrowregular" horiz-adv-x="934" >
<font-face units-per-em="2048" ascent="1638" descent="-410" />
<missing-glyph horiz-adv-x="467" />
<glyph horiz-adv-x="2048" />
<glyph horiz-adv-x="2048" />
<glyph unicode="&#xd;" horiz-adv-x="0" />
<glyph unicode=" "  horiz-adv-x="467" />
<glyph unicode="&#x09;" horiz-adv-x="467" />
<glyph unicode="&#xa0;" horiz-adv-x="467" />
<glyph unicode="!" horiz-adv-x="467" d="M123 1405h231q-3 -29 -6.5 -93t-8 -150t-9 -189t-10 -210.5t-10.5 -213.5t-9 -199h-127q-12 265 -24 528t-27 527zM137 0v222h205v-222h-205z" />
<glyph unicode="&#x22;" horiz-adv-x="596" d="M76 1104v301h168v-301q-11 -69 -22 -136l-22 -134h-79q-12 67 -22 134t-23 136zM348 1104v301h169v-301q-14 -69 -24.5 -136t-21.5 -134h-80q-11 67 -21.5 134t-21.5 136z" />
<glyph unicode="#" d="M18 367v156h166l70 317h-155v156h190l96 430h156l-97 -430h184l97 430h156l-97 -430h123v-156h-158l-69 -317h146v-156h-181l-82 -367h-155l81 367h-184l-81 -367h-157l82 367h-131zM340 523h185l69 317h-184z" />
<glyph unicode="$" d="M109 455q0 21 1 31t1 13h168v-20q0 -87 37.5 -132.5t97.5 -59.5v366q-51 18 -101.5 40t-90.5 56t-64.5 84.5t-24.5 125.5q0 64 19.5 116t56 90.5t88.5 63t117 33.5v219h101v-217q69 -5 122 -30.5t88.5 -65t54 -90.5t18.5 -107q0 -11 -1 -23.5t-1 -16.5h-166v19 q0 28 -5.5 55t-19 49.5t-35.5 39.5t-55 25v-325q53 -18 107.5 -39.5t98.5 -57.5t71.5 -90t27.5 -136q0 -80 -23 -139.5t-63.5 -100t-96.5 -62.5t-122 -28v-242h-101v242q-83 7 -140.5 36t-94.5 72t-53.5 96.5t-16.5 109.5zM301 971q0 -54 31.5 -85t81.5 -52v285 q-35 -7 -57 -23.5t-34.5 -37.5t-17 -44t-4.5 -43zM515 285q58 9 97 49t39 112q0 34 -10.5 60t-28.5 46.5t-43 35.5t-54 28v-331z" />
<glyph unicode="%" horiz-adv-x="1493" d="M93 1059q0 106 17.5 177.5t51.5 114.5t82 61t110 18t110.5 -18t82.5 -61t51.5 -114.5t17.5 -177.5q0 -107 -17.5 -178t-51.5 -113.5t-82.5 -60t-110.5 -17.5t-110 18t-82 60.5t-51.5 113.5t-17.5 177zM234 1044q0 -51 5 -94t18.5 -74t36.5 -48t60 -17t60.5 17t37 48 t18.5 74t5 94v31q0 51 -5 94t-18.5 74t-37 48.5t-60.5 17.5t-60 -17.5t-36.5 -48.5t-18.5 -74t-5 -94v-31zM256 0l856 1405h146l-858 -1405h-144zM895 344q0 106 18 177.5t51.5 114.5t82 61t110.5 18q61 0 110 -18t83 -61t52 -114.5t18 -177.5q0 -107 -18 -178t-52 -113 t-83 -59.5t-110 -17.5q-62 0 -110.5 17.5t-82 60t-51.5 113.5t-18 177zM1036 329q0 -51 5 -94t18.5 -73.5t37 -47.5t60.5 -17t60.5 17t37 47.5t18.5 73.5t5 94v31q0 51 -5 94t-18.5 74t-37 48.5t-60.5 17.5t-60.5 -17.5t-37 -48.5t-18.5 -74t-5 -94v-31z" />
<glyph unicode="&#x26;" horiz-adv-x="1120" d="M71 377q0 70 16 126t43.5 99t65.5 72.5t83 46.5v8q-39 22 -72.5 51t-58 67t-38 86.5t-13.5 110.5q0 94 30.5 166t87 121t135.5 74t175 25q93 0 171.5 -27.5t134.5 -78t87.5 -121.5t31.5 -159v-36h-168v18q0 65 -19.5 112.5t-54 78t-82 45t-103.5 14.5q-50 0 -95 -13.5 t-78.5 -42.5t-53 -75t-19.5 -111q0 -62 17.5 -108.5t47 -77t68 -45.5t81.5 -15h105v-149h-101q-47 0 -90.5 -11t-77.5 -39.5t-54.5 -76.5t-20.5 -123q0 -69 19.5 -118.5t54.5 -81t85 -46t110 -14.5q261 0 261 262v397h311v-151h-143v-239q0 -96 -28.5 -174t-84 -133 t-138.5 -85t-192 -30q-96 0 -176 27.5t-137.5 79t-90 126t-32.5 168.5z" />
<glyph unicode="'" horiz-adv-x="322" d="M71 1104v301h169v-301q-11 -69 -22 -136l-22 -134h-79q-12 67 -22.5 134t-23.5 136z" />
<glyph unicode="(" horiz-adv-x="559" d="M82 590q0 126 22 249t65 240t105.5 224.5t143.5 201.5h111q-58 -93 -108 -202.5t-86.5 -227t-57.5 -239.5t-21 -242t21 -242.5t57.5 -241t86.5 -228t108 -203.5h-111q-81 94 -143.5 201t-105.5 223t-65 238.5t-22 248.5z" />
<glyph unicode=")" horiz-adv-x="559" d="M31 -321q57 94 107 203.5t86.5 228t57.5 241t21 242.5t-21 242t-57.5 239.5t-86.5 227t-107 202.5h110q81 -94 143.5 -201.5t105 -224.5t65 -240t22.5 -249t-22.5 -248.5t-65 -238.5t-105 -223t-143.5 -201h-110z" />
<glyph unicode="*" horiz-adv-x="653" d="M53 1055l169 78l-169 77l70 119l152 -107l-19 183h140l-19 -181l152 105l69 -119l-168 -77l168 -78l-69 -122l-152 107l19 -182h-140l19 182l-152 -107z" />
<glyph unicode="+" horiz-adv-x="981" d="M88 436v172h316v438h170v-438h317v-172h-317v-436h-170v436h-316z" />
<glyph unicode="," horiz-adv-x="467" d="M131 0v222h205v-204l-98 -272h-107l82 254h-82z" />
<glyph unicode="-" horiz-adv-x="559" d="M20 453v200h517v-200h-517z" />
<glyph unicode="." horiz-adv-x="467" d="M131 0v222h205v-222h-205z" />
<glyph unicode="/" horiz-adv-x="467" d="M2 -101l321 1606h144l-320 -1606h-145z" />
<glyph unicode="0" d="M82 703q0 214 26.5 354.5t76 223t121 116t161.5 33.5t161.5 -33.5t121 -116t76 -223t26.5 -354.5q0 -215 -26.5 -355t-76 -223t-121 -116t-161.5 -33t-161.5 33t-121 116t-76 223t-26.5 355zM254 630q0 -110 9.5 -202.5t34 -159.5t65.5 -105t104 -38t104 38t65.5 105 t34 159.5t9.5 202.5v144q0 110 -9.5 202.5t-34 160t-65.5 105.5t-104 38t-104 -38t-65.5 -105.5t-34 -160t-9.5 -202.5v-144z" />
<glyph unicode="1" d="M101 1149v107q43 4 98 17t114.5 32.5t118 45t107.5 54.5h65v-1256h307v-149h-808v149h333v1000h-335z" />
<glyph unicode="2" d="M80 0v26q0 84 25 160.5t73 145.5q42 61 94 119.5t105.5 116.5t104.5 116t90.5 119.5t63.5 126.5t24 137q0 35 -9 72t-30.5 67t-58.5 49t-93 19q-55 0 -92.5 -21.5t-60.5 -58t-33 -85.5t-10 -103v-85h-174q-2 10 -3 23q-3 22 -3 60q0 113 30.5 193.5t82.5 132.5t120.5 76 t144.5 24t143 -21t116.5 -65t78.5 -113t29 -166q0 -88 -27 -166.5t-71 -149.5t-100 -136t-113 -127t-111 -122t-93 -120q-12 -19 -21 -37t-15 -35h557v-172h-764z" />
<glyph unicode="3" d="M71 398v16h173v-23q0 -131 53.5 -198.5t157.5 -67.5q50 0 91.5 15t71 47.5t46 82.5t16.5 119q0 75 -19.5 123t-52 76.5t-74 39.5t-86.5 11h-116v149h121q40 0 77 15t64.5 45.5t44 77t16.5 108.5q0 65 -15.5 111.5t-42 76.5t-61.5 44t-73 14q-42 0 -78 -15t-62 -46.5 t-40.5 -79.5t-14.5 -113v-18h-171v36q0 88 27 159t75 121.5t115 78t147 27.5q82 0 149.5 -25t116 -74t75 -121t26.5 -166q0 -62 -14 -110.5t-38.5 -86.5t-58 -67t-72.5 -51v-8q45 -17 82.5 -46.5t65.5 -72.5t43.5 -99t15.5 -126q0 -94 -28.5 -168.5t-79.5 -126t-122 -79 t-155 -27.5q-96 0 -170 30t-124.5 85t-76 133t-25.5 174z" />
<glyph unicode="4" d="M41 346v151q55 101 107.5 214.5t99 233t87 242.5t71.5 243h170q-20 -95 -50 -193t-65.5 -192.5t-73.5 -181.5t-73.5 -159.5t-65.5 -126.5t-50 -82h386v443q15 37 26.5 71t21.5 67t19 68t19 76h81v-725h144v-149h-144v-346h-167v346h-543z" />
<glyph unicode="5" d="M82 436h174q0 -72 17 -130t46.5 -98.5t69.5 -62.5t86 -22q47 0 86.5 20.5t68.5 62.5t45.5 105t16.5 148q0 73 -15 129.5t-42 95t-64 58.5t-82 20q-67 0 -122.5 -44.5t-85.5 -117.5l-160 26l47 779h639v-173h-494l-26 -427q17 17 41 36t54.5 35t69 26.5t83.5 10.5 q69 0 129.5 -27.5t105 -83.5t70.5 -141.5t26 -201.5t-27 -206t-77.5 -151.5t-123 -93.5t-163.5 -32q-89 0 -161.5 31.5t-124 91t-79.5 144.5t-28 193z" />
<glyph unicode="6" d="M82 662q0 220 26.5 367.5t77 236.5t123.5 126.5t166 37.5q90 0 154.5 -35t106 -96.5t61 -145t19.5 -180.5h-171q0 146 -44 226.5t-134 80.5q-64 0 -105 -37t-64.5 -106t-33 -167.5t-10.5 -220.5q45 63 108 98.5t139 35.5q89 0 155 -35.5t109.5 -96.5t65 -144t21.5 -177 q0 -105 -27.5 -189.5t-76.5 -143t-116.5 -90t-146.5 -31.5q-94 0 -169 34t-127 113.5t-79.5 211.5t-27.5 327zM268 430q0 -63 12.5 -118.5t38 -97t64.5 -65.5t92 -24t91.5 24t64 65.5t37.5 97t12 118.5t-12 118.5t-37.5 97t-64 65.5t-91.5 24t-92 -24t-64.5 -65.5t-38 -97 t-12.5 -118.5z" />
<glyph unicode="7" d="M67 1232v173h799v-108q-48 -73 -99 -158t-99 -179.5t-91 -197.5t-75 -211t-51 -220.5t-19 -225.5v-49q0 -11 0.5 -24.5t1.5 -31.5h-190q0 181 38.5 355t98.5 332.5t133 296.5t141 248h-588z" />
<glyph unicode="8" d="M82 385q0 114 42.5 201t137.5 135q-75 51 -113 134t-38 183q0 81 22.5 152.5t67.5 124.5t111.5 84t154.5 31t155 -31t112 -84t67.5 -124.5t22.5 -152.5q0 -100 -38.5 -183t-115.5 -134q96 -48 139 -135t43 -201q0 -84 -22 -158.5t-68.5 -130t-119.5 -88t-175 -32.5 t-175 32.5t-119.5 88t-68.5 130t-22 158.5zM254 385q0 -60 13.5 -108t40.5 -81.5t66.5 -52t92.5 -18.5q52 0 92 18.5t67 52t40.5 81.5t13.5 108q0 121 -54 189.5t-159 68.5t-159 -69t-54 -189zM279 1036q0 -114 50.5 -179t137.5 -65t138.5 65t51.5 179q0 115 -51.5 179.5 t-138.5 64.5t-137.5 -64.5t-50.5 -179.5z" />
<glyph unicode="9" d="M82 975q0 105 27.5 189.5t76.5 143.5t116 90.5t146 31.5q95 0 170 -34t127 -114t79.5 -212t27.5 -327q0 -219 -26 -366.5t-75.5 -236.5t-121 -126.5t-162.5 -37.5q-92 0 -158 34.5t-108 96t-62 144.5t-20 181h170q0 -146 46 -226.5t140 -80.5q61 0 100.5 37t62 105.5 t31.5 166t11 219.5q-47 -62 -108.5 -96t-139.5 -34q-89 0 -155 35t-109.5 96.5t-64.5 143.5t-21 177zM254 975q0 -63 12 -118.5t37 -97t64 -65.5t92 -24t92 24t64.5 65.5t38 97t12.5 118.5t-12.5 118.5t-38 97t-64.5 65.5t-92 24t-92 -24t-64 -65.5t-37 -97t-12 -118.5z" />
<glyph unicode=":" horiz-adv-x="467" d="M131 0v222h205v-222h-205zM131 856v221h205v-221h-205z" />
<glyph unicode=";" horiz-adv-x="467" d="M131 0v222h205v-204l-98 -272h-107l82 254h-82zM131 856v221h205v-221h-205z" />
<glyph unicode="&#x3c;" horiz-adv-x="981" d="M91 410v218l802 404v-184l-637 -327l637 -329v-184z" />
<glyph unicode="=" horiz-adv-x="981" d="M88 217v170h803v-170h-803zM88 651v173h803v-173h-803z" />
<glyph unicode="&#x3e;" horiz-adv-x="981" d="M91 8v184l636 329l-636 327v184l802 -404v-218z" />
<glyph unicode="?" d="M88 1012q0 86 24.5 162t74 133t123.5 90t173 33q76 0 141 -27t112.5 -75t74.5 -115t27 -148q0 -99 -20 -165.5t-49.5 -114.5t-64 -83t-64 -70t-49.5 -76.5t-20 -102.5v-84h-177v114q0 69 19 118.5t47.5 89t62 74.5t62 74t47.5 87.5t19 115.5q0 14 -2 37t-8.5 48.5 t-19 51.5t-32.5 46.5t-49.5 33.5t-70.5 13q-65 0 -103.5 -30t-58.5 -73t-26 -90.5t-6 -82.5v-23q0 -9 1 -17q0 -9 1 -16h-182q-2 14 -4 27q-2 11 -2.5 23t-0.5 22zM379 0v222h205v-222h-205z" />
<glyph unicode="@" horiz-adv-x="1704" d="M93 537q0 163 28.5 293t80.5 229t124 169.5t159 115t186 65.5t204 21q158 0 292.5 -43.5t233 -137t154 -240t55.5 -352.5q0 -116 -17.5 -206.5t-47 -158.5t-68.5 -115t-82.5 -76.5t-88 -42.5t-84.5 -13q-44 0 -75 9.5t-52.5 26t-34.5 40t-20 51.5h-8q-38 -60 -100 -94.5 t-140 -34.5q-35 0 -79 10t-83 39t-66 83t-27 142q0 102 37.5 166t103.5 100t156.5 49t197.5 13v127q0 35 -6.5 64.5t-24 50.5t-47.5 32.5t-77 11.5q-43 0 -72 -13.5t-46 -35.5t-24.5 -50t-7.5 -56v-22h-151q-2 9 -2 18v22q0 68 23.5 119t65 85.5t99.5 51.5t127 17 q148 0 221.5 -71.5t73.5 -203.5v-536q0 -42 17.5 -60t52.5 -18q40 0 82 22t76.5 77t56.5 148t22 235q0 174 -45.5 298.5t-127 204t-195.5 117t-251 37.5q-153 0 -275.5 -48t-208.5 -145t-132 -244t-46 -345q0 -368 147 -551.5t452 -183.5q32 0 74.5 5t86 13.5t82.5 20.5 t65 26v-123q-30 -12 -70.5 -22.5t-83 -17.5t-83.5 -11t-71 -4q-166 0 -298.5 49.5t-225.5 153.5t-142.5 264.5t-49.5 382.5zM697 327q0 -84 34 -116.5t99 -32.5q36 0 72 15t65 45t47 75.5t18 106.5v89q-74 0 -136 -7t-106 -26.5t-68.5 -55t-24.5 -93.5z" />
<glyph unicode="A" horiz-adv-x="1120" d="M-2 0l446 1405h232l446 -1405h-194l-97 313h-557l-96 -313h-180zM324 477h456l-190 625q-6 17 -11.5 43.5t-10.5 51.5q-5 29 -11 60h-8q-6 -32 -11 -61q-5 -25 -11 -51t-11 -43z" />
<glyph unicode="B" horiz-adv-x="1120" d="M133 0v1405h533q78 0 144.5 -24.5t114.5 -69.5t75.5 -108.5t27.5 -141.5q0 -61 -16.5 -113t-45.5 -93.5t-68.5 -71.5t-84.5 -46v-8q52 -16 97.5 -48.5t79 -78t52.5 -104t19 -125.5q0 -89 -31.5 -158t-85.5 -117t-125.5 -73t-152.5 -25h-533zM313 164h328q50 0 92.5 15 t73 44.5t48 73t17.5 100.5q0 48 -17 91.5t-48.5 76.5t-76.5 52.5t-101 19.5h-316v-473zM313 801h299q52 0 94 18t72 48t46 70t16 85q0 110 -59 164.5t-156 54.5h-312v-440z" />
<glyph unicode="C" horiz-adv-x="1212" d="M86 703q0 365 140 546t413 181q107 0 197 -33t155 -99t101.5 -166t36.5 -235h-185q0 92 -21.5 161t-61.5 114.5t-96.5 68.5t-125.5 23q-185 0 -274.5 -126.5t-89.5 -383.5v-103q0 -258 89.5 -384t274.5 -126q71 0 128.5 22.5t98 67.5t62.5 113t22 159h179 q0 -136 -36.5 -235t-101.5 -164t-155 -96.5t-197 -31.5q-273 0 -413 180.5t-140 546.5z" />
<glyph unicode="D" horiz-adv-x="1212" d="M143 0v1405h437q124 0 222.5 -43t167.5 -128.5t105.5 -213t36.5 -297.5q0 -180 -36.5 -315.5t-105.5 -226t-167.5 -136t-222.5 -45.5h-437zM324 164h239q83 0 149.5 31.5t113.5 94.5t72.5 158.5t25.5 223.5v102q0 117 -25.5 205t-72.5 146t-113.5 87t-149.5 29h-239 v-1077z" />
<glyph unicode="E" horiz-adv-x="1120" d="M143 0v1405h867v-164h-686v-440h596v-164h-596v-473h698v-164h-879z" />
<glyph unicode="F" horiz-adv-x="1026" d="M143 0v1405h811v-164h-630v-455h557v-163h-557v-623h-181z" />
<glyph unicode="G" horiz-adv-x="1307" d="M100 702q0 183 39 319.5t111.5 227.5t177 136t236.5 45q109 0 202.5 -31t162 -93.5t107 -157.5t38.5 -222h-185q0 87 -24 151t-66.5 105.5t-102.5 61.5t-132 20q-87 0 -156.5 -31.5t-118 -95t-74.5 -159.5t-26 -224v-103q0 -257 94 -383.5t270 -126.5q175 0 255.5 99 t80.5 301v32h-364v158h549v-731h-119l-39 156q-65 -96 -156.5 -138.5t-206.5 -42.5q-133 0 -236 45t-173.5 136t-107 227t-36.5 319z" />
<glyph unicode="H" horiz-adv-x="1212" d="M143 0v1405h181v-604h565v604h180v-1405h-180v637h-565v-637h-181z" />
<glyph unicode="I" horiz-adv-x="467" d="M143 0v1405h180v-1405h-180z" />
<glyph unicode="J" horiz-adv-x="840" d="M26 334v92h180v-103q0 -90 41.5 -136t119.5 -46q77 0 118.5 46t41.5 136v1082h180v-1071q0 -176 -89 -267t-251 -91t-251.5 91t-89.5 267z" />
<glyph unicode="K" horiz-adv-x="1120" d="M143 0v1405h181v-743l557 743h200l-422 -567l437 -838h-205l-342 686l-225 -250v-436h-181z" />
<glyph unicode="L" d="M143 0v1405h181v-1241h573v-164h-754z" />
<glyph unicode="M" horiz-adv-x="1399" d="M127 0v1405h274l248 -922q5 -19 9.5 -43t9 -49.5t8.5 -52t7 -51.5q7 -58 13 -119h9q5 62 12 121q6 50 14 103.5t19 90.5l249 922h273v-1405h-180v1020q0 18 2 54.5t5 72.5q3 42 7 90h-8q-9 -48 -18 -90q-8 -36 -16 -72.5t-13 -54.5l-281 -1020h-162l-280 1020 q-2 7 -5 20.5t-6.5 30t-7.5 35.5t-7 37q-8 43 -17 94h-9q3 -50 6 -93q2 -37 4.5 -73t2.5 -51v-1020h-162z" />
<glyph unicode="N" horiz-adv-x="1212" d="M143 0v1405h156l523 -882q11 -20 25.5 -52.5t28.5 -62.5q15 -36 31 -74l6 2q-2 40 -3 76q-2 31 -2.5 62.5t-0.5 48.5v882h162v-1405h-150l-525 895q-14 23 -29.5 54.5t-29.5 61.5q-16 34 -32 72l-6 -2q2 -37 4 -71q2 -29 3 -61t1 -54v-895h-162z" />
<glyph unicode="O" horiz-adv-x="1307" d="M101 703q0 183 38 319t109 227t173.5 136t231.5 45t232 -45t174 -136t109 -227t38 -319t-38 -319.5t-109 -227t-174 -135.5t-232 -45t-231.5 45t-173.5 135.5t-109 227t-38 319.5zM289 651q0 -128 25 -224t72.5 -159.5t115 -95t151.5 -31.5q85 0 152.5 31.5t114.5 95 t72.5 159.5t25.5 224v103q0 128 -25.5 223.5t-72.5 159.5t-114.5 95.5t-152.5 31.5q-84 0 -151.5 -31.5t-115 -95.5t-72.5 -159.5t-25 -223.5v-103z" />
<glyph unicode="P" horiz-adv-x="1120" d="M143 0v1405h502q104 0 182.5 -30t131.5 -84t79.5 -129.5t26.5 -166.5q0 -93 -29 -169t-83.5 -131t-132.5 -85t-175 -30h-321v-580h-181zM324 743h315q54 0 97.5 18t75 51t48.5 79.5t17 103.5q0 115 -61 180.5t-177 65.5h-315v-498z" />
<glyph unicode="Q" horiz-adv-x="1307" d="M100 702q0 183 38 319.5t109.5 227.5t174 136t231.5 45t231.5 -45t174 -136t109.5 -227.5t38 -319.5q0 -279 -88 -451.5t-246 -236.5l291 -268h-241l-244 229h-25q-129 0 -231.5 45t-174 136t-109.5 227t-38 319zM289 651q0 -128 25 -224t72.5 -159.5t115 -95 t151.5 -31.5q85 0 152.5 31.5t114.5 95t72.5 159.5t25.5 224v103q0 128 -25.5 224t-72.5 159.5t-114.5 95t-152.5 31.5q-84 0 -151.5 -31.5t-115 -95t-72.5 -159.5t-25 -224v-103z" />
<glyph unicode="R" horiz-adv-x="1212" d="M143 0v1405h566q103 0 181.5 -28.5t131.5 -79.5t79.5 -122.5t26.5 -158.5q0 -131 -65.5 -226.5t-183.5 -136.5l282 -653h-200l-261 621h-376v-621h-181zM324 784h378q54 0 98 16.5t75 47t48 73.5t17 95q0 105 -61 165t-177 60h-378v-457z" />
<glyph unicode="S" horiz-adv-x="1120" d="M84 398q0 11 1 23t1 17h187q0 -1 -0.5 -6t-1 -11.5t-1 -13.5t-0.5 -11q0 -65 21 -112.5t58.5 -79.5t88.5 -47.5t111 -15.5q142 0 218.5 60t76.5 174q0 66 -31.5 109.5t-83 74t-117 52.5t-134 45t-134 52t-117 74t-83 110t-31.5 160q0 97 35 168.5t95.5 118t142 69 t173.5 22.5q91 0 171.5 -22.5t140.5 -70.5t94.5 -123t34.5 -180v-24h-186v30q0 54 -19.5 95.5t-53 70t-79.5 43.5t-99 15q-55 0 -102.5 -12t-82.5 -36t-55 -61t-20 -88q0 -63 31.5 -104.5t82.5 -71t116.5 -51.5t134 -45t134 -52t116.5 -73t82.5 -108t31.5 -156 q0 -118 -36 -200t-99.5 -133t-150.5 -74t-189 -23q-96 0 -182 22.5t-150.5 72.5t-102.5 130.5t-38 196.5z" />
<glyph unicode="T" horiz-adv-x="1026" d="M39 1241v164h946v-164h-383v-1241h-180v1241h-383z" />
<glyph unicode="U" horiz-adv-x="1212" d="M143 457v948h180v-959q0 -149 75.5 -227t207.5 -78t207.5 78t75.5 227v959h180v-948q0 -119 -31.5 -208.5t-91.5 -150.5t-146 -91.5t-194 -30.5t-194 30.5t-146 91.5t-91.5 150.5t-31.5 208.5z" />
<glyph unicode="V" horiz-adv-x="1120" d="M16 1405h199l348 -1207h8l358 1207h175l-428 -1405h-232z" />
<glyph unicode="W" horiz-adv-x="1585" d="M20 1405h190l216 -971q7 -31 14 -74t14 -82q7 -46 15 -94h8q4 38 9 79q5 35 11 79.5t14 91.5l163 971h249l175 -971q7 -38 14 -81.5t12 -81.5q6 -44 11 -87h8l14 90q6 38 13.5 81.5t15.5 78.5l215 971h164l-326 -1405h-233l-172 953q-6 35 -13 82.5t-13 92.5 q-7 52 -14 106h-8q-6 -54 -13 -106q-6 -45 -13 -92.5t-13 -82.5l-167 -953h-234z" />
<glyph unicode="X" horiz-adv-x="1120" d="M8 0l449 729l-408 676h213l303 -502q86 140 155 250q29 47 57 92t49.5 80.5t34.5 57.5l14 22h192l-18 -29q-17 -29 -45.5 -75.5t-65.5 -105.5t-75 -121q-90 -145 -203 -329l452 -745h-213l-346 574l-353 -574h-192z" />
<glyph unicode="Y" horiz-adv-x="1120" d="M16 1405h199l356 -651h9l349 651h175l-453 -823v-582h-180v582z" />
<glyph unicode="Z" horiz-adv-x="1026" d="M41 0v78l668 1163h-625v164h883v-78l-670 -1163h684v-164h-940z" />
<glyph unicode="[" horiz-adv-x="467" d="M101 -329v1834h325v-133h-170v-1568h170v-133h-325z" />
<glyph unicode="\" horiz-adv-x="467" d="M2 1505h143l322 -1606h-146z" />
<glyph unicode="]" horiz-adv-x="467" d="M41 -196h169v1568h-169v133h326v-1834h-326v133z" />
<glyph unicode="^" horiz-adv-x="788" d="M8 602l279 803h218l281 -803h-184l-206 646l-204 -646h-184z" />
<glyph unicode="_" d="M0 -145h931v-109h-931v109z" />
<glyph unicode="`" horiz-adv-x="559" d="M55 1474l2 7h185l176 -271h-141z" />
<glyph unicode="a" d="M69 279q0 111 41 181.5t114 110t173 54t217 14.5v139q0 39 -7 71t-26 55t-52 36t-85 13q-48 0 -79.5 -15t-50.5 -39.5t-27 -55t-8 -61.5v-24h-166q-2 9 -2 19v25q0 74 25.5 130.5t71.5 94t109.5 56.5t139.5 19q163 0 244 -79.5t81 -222.5v-604q0 -38 18 -54.5t40 -16.5 h65v-117q-14 -8 -42 -16t-69 -8q-66 0 -110 36.5t-60 96.5h-10q-42 -67 -109.5 -104t-152.5 -37q-27 0 -58 4.5t-62.5 16t-61 33t-52 55t-36 81.5t-13.5 113zM246 289q0 -92 37 -128t108 -36q40 0 79.5 16.5t71.5 49.5t52 83t20 117v98q-82 0 -149.5 -7.5t-116 -29.5 t-75.5 -61t-27 -102z" />
<glyph unicode="b" d="M123 0v1481h168v-506h10q28 60 89.5 93.5t139.5 33.5q67 0 126 -32.5t102.5 -101t68.5 -174.5t25 -253q0 -149 -23.5 -256t-67 -176t-105 -101.5t-138.5 -32.5q-74 0 -135.5 38t-99.5 112h-11l-22 -125h-127zM291 500q0 -187 47.5 -281t144.5 -94q48 0 84.5 21t60.5 66 t36 116t12 172v78q0 100 -12 171t-36 116t-60.5 66t-84.5 21q-192 0 -192 -383v-69z" />
<glyph unicode="c" horiz-adv-x="840" d="M74 539q0 289 89.5 426t278.5 137q88 0 150.5 -27.5t102.5 -81.5t58.5 -133t18.5 -182h-174q0 70 -7.5 121.5t-25.5 85.5t-48 51t-75 17q-100 0 -146 -94t-46 -281v-79q0 -186 45 -280t147 -94q45 0 76.5 18t51 53t28 86t8.5 118h166q0 -85 -18 -161.5t-57.5 -135 t-102.5 -93t-152 -34.5q-95 0 -164.5 33.5t-114.5 103t-67 175.5t-22 251z" />
<glyph unicode="d" d="M82 541q0 146 25.5 252t69 174.5t102 101.5t125.5 33q78 0 139.5 -33.5t89.5 -93.5h10v506h168v-1481h-127l-22 125h-11q-38 -75 -99 -112t-136 -37q-77 0 -139 32.5t-105.5 101.5t-66.5 175.5t-23 255.5zM258 499q0 -100 12 -171t36 -116t60 -66t84 -21q98 0 145.5 94 t47.5 280v70q0 384 -193 384q-48 0 -84 -21t-60 -66t-36 -116.5t-12 -171.5v-79z" />
<glyph unicode="e" d="M86 539q0 289 101.5 426t303.5 137q88 0 155 -28.5t111 -89.5t66.5 -157t22.5 -231v-107h-584q1 -188 58.5 -276t176.5 -88q40 0 73.5 16.5t58 48t38 76.5t13.5 101h166q0 -91 -25.5 -163.5t-72 -123t-111.5 -77.5t-144 -27q-100 0 -176 31.5t-127.5 100t-77.5 175 t-26 256.5zM264 639h406q0 155 -45.5 234.5t-133.5 79.5q-56 0 -96.5 -20t-67.5 -59.5t-42 -98t-21 -136.5z" />
<glyph unicode="f" horiz-adv-x="467" d="M18 927v150h95v173q0 46 10 90t34.5 79t65.5 56.5t102 21.5q38 0 77 -7.5t65 -17.5v-116h-90q-48 0 -72 -25t-24 -73v-181h186v-150h-186v-927h-168v927h-95z" />
<glyph unicode="g" d="M26 -117q0 39 10 75.5t28 66.5t44 53t58 35q-42 26 -65 69.5t-23 92.5q0 66 41.5 113.5t110.5 72.5q-59 48 -92 117.5t-33 160.5q0 85 24 152t69.5 114t111 72t147.5 25q41 0 81 -10.5t74 -28.5q36 19 60 41.5t39 47t22.5 49.5t11.5 51h148q0 -48 -12 -90.5t-35.5 -76.5 t-57 -57.5t-75.5 -34.5q45 -47 70.5 -110t25.5 -144q0 -83 -24.5 -150t-69.5 -113.5t-108.5 -72t-141.5 -26.5h-113q-21 0 -38.5 -7.5t-31 -20.5t-21 -30.5t-7.5 -37.5t8 -37.5t21.5 -31t31 -21t37.5 -7.5h308q58 0 105 -20t80 -54.5t50.5 -80t17.5 -96.5q0 -64 -20.5 -120 t-60.5 -97t-99 -65t-135 -24h-305q-66 0 -116 20t-83.5 55t-50.5 81.5t-17 99.5zM194 -101q0 -26 8 -49t23.5 -40.5t39 -27.5t54.5 -10h297q27 0 50 10t40.5 27.5t27 40.5t9.5 49t-7.5 49t-23.5 40t-39.5 26.5t-56.5 9.5h-297q-32 0 -55.5 -9.5t-39 -26.5t-23 -40t-7.5 -49z M273 739q0 -108 46 -165t136 -57t137 59.5t47 162.5q0 109 -47 166.5t-137 57.5t-136 -60t-46 -164z" />
<glyph unicode="h" d="M123 0v1481h168v-516h12q42 72 101.5 104.5t140.5 32.5q61 0 110 -17t83.5 -56t53.5 -101t19 -152v-776h-168v764q0 56 -11 92.5t-31 58t-48 30t-62 8.5q-40 0 -76 -20t-63.5 -58t-44 -93t-16.5 -125v-657h-168z" />
<glyph unicode="i" horiz-adv-x="373" d="M103 0v1077h167v-1077h-167zM103 1280v201h167v-201h-167z" />
<glyph unicode="j" horiz-adv-x="373" d="M-84 -232h90q48 0 72.5 25.5t24.5 73.5v1210h167v-1202q0 -46 -10 -90.5t-34.5 -79.5t-65.5 -56.5t-103 -21.5q-37 0 -76 8t-65 17v116zM103 1280v201h167v-201h-167z" />
<glyph unicode="k" horiz-adv-x="840" d="M123 0v1481h168v-903l348 499h187l-319 -442l335 -635h-191l-245 491l-115 -124v-367h-168z" />
<glyph unicode="l" horiz-adv-x="373" d="M103 0v1481h167v-1481h-167z" />
<glyph unicode="m" horiz-adv-x="1399" d="M123 0v1077h127l23 -124h12q43 80 105.5 114.5t140.5 34.5q79 0 139.5 -36.5t89.5 -119.5q44 77 114 116.5t148 39.5q57 0 103.5 -17t80 -56t52 -101t18.5 -152v-776h-168v764q0 56 -10.5 92.5t-29.5 58t-44 30t-55 8.5q-38 0 -71.5 -20t-59 -58t-40 -93t-14.5 -125v-657 h-168v764q0 56 -10.5 92.5t-29 58t-44 30t-55.5 8.5q-38 0 -71.5 -20t-59 -58t-40.5 -93t-15 -125v-657h-168z" />
<glyph unicode="n" d="M123 0v1077h127l23 -124h12q45 80 112 114.5t148 34.5q61 0 110 -17t83.5 -56t53.5 -101t19 -152v-776h-168v764q0 56 -11 92.5t-31 58t-48 30t-62 8.5q-40 0 -76 -20t-63.5 -58t-44 -93t-16.5 -125v-657h-168z" />
<glyph unicode="o" d="M82 539q0 289 98 426t287 137t287 -137t98 -426q0 -290 -98 -426.5t-287 -136.5t-287 136.5t-98 426.5zM258 499q0 -186 51.5 -280t157.5 -94q105 0 157 94t52 280v79q0 187 -52 281t-157 94q-106 0 -157.5 -94t-51.5 -281v-79z" />
<glyph unicode="p" d="M123 -354v1431h127l23 -124h10q38 73 99.5 111t136.5 38q76 0 138 -33t105 -102t66.5 -175.5t23.5 -254.5q0 -147 -25 -253t-68.5 -174.5t-102 -101t-125.5 -32.5q-79 0 -140.5 31t-89.5 88h-10v-449h-168zM291 499q0 -186 47.5 -280t144.5 -94q48 0 84.5 21t60.5 66 t36 116t12 171v79q0 100 -12 171.5t-36 116.5t-60.5 66t-84.5 21q-97 0 -144.5 -94t-47.5 -281v-79z" />
<glyph unicode="q" d="M82 537q0 148 23.5 255t67 176t105 101.5t138.5 32.5q74 0 135.5 -37.5t99.5 -112.5h11l22 125h127v-1431h-168v448h-10q-28 -56 -89.5 -87.5t-140.5 -31.5q-67 0 -125.5 32.5t-102 101.5t-68.5 175t-25 253zM258 500q0 -101 12 -172t36 -116t60.5 -66t84.5 -21 q97 0 144.5 94t47.5 281v78q0 186 -47.5 280t-144.5 94q-48 0 -84.5 -21t-60.5 -66t-36 -116t-12 -171v-78z" />
<glyph unicode="r" horiz-adv-x="559" d="M123 0v1077h127l23 -141h12q10 31 25 60.5t37 53t51.5 38t68.5 14.5q17 0 31 -3t25 -6l24 -8v-174h-56q-40 0 -76 -13t-63.5 -42.5t-44 -78t-16.5 -120.5v-657h-168z" />
<glyph unicode="s" horiz-adv-x="840" d="M67 291q0 21 1 31.5t1 13.5h177v-21q0 -51 13.5 -87t37.5 -59.5t56 -34.5t69 -11q33 0 62 10t51.5 30.5t35.5 50.5t13 69q0 51 -21 84t-55.5 55.5t-78.5 39t-90.5 33.5t-90.5 39t-78.5 55.5t-55.5 83t-21 121.5t23.5 129t67.5 96.5t105.5 61t138.5 21.5q75 0 132.5 -23.5 t97 -64t59.5 -94t20 -113.5q0 -11 -1 -23.5t-1 -15.5h-174v18q0 31 -7 61.5t-24.5 54.5t-46 38.5t-71.5 14.5q-45 0 -73 -15t-44.5 -37t-22.5 -48t-6 -48q0 -44 21 -72.5t55.5 -48.5t79 -35t90.5 -32t90.5 -39.5t79 -58t55.5 -87.5t21 -127q0 -87 -26 -149.5t-72 -103 t-109 -59.5t-137 -19q-93 0 -159 26.5t-107.5 71t-61 101t-19.5 116.5z" />
<glyph unicode="t" horiz-adv-x="467" d="M28 927v150h93l37 299h131v-299h145v-150h-145v-703q0 -48 24 -73.5t72 -25.5h49v-117q-21 -12 -55.5 -20t-65.5 -8q-55 0 -92 21.5t-59 56.5t-31.5 79.5t-9.5 90.5v699h-93z" />
<glyph unicode="u" d="M123 301v776h168v-764q0 -56 11 -92.5t31 -57.5t47.5 -29.5t61.5 -8.5q40 0 76.5 20t64 58t44 92.5t16.5 124.5v657h168v-1077h-127l-22 125h-13q-45 -81 -112.5 -115t-147.5 -34q-60 0 -109.5 17t-84 55.5t-53.5 100.5t-19 152z" />
<glyph unicode="v" horiz-adv-x="840" d="M20 1077h184l220 -819h8l219 819h171l-311 -1077h-182z" />
<glyph unicode="w" horiz-adv-x="1212" d="M2 1077h184l135 -606q8 -33 15.5 -77t13.5 -84q7 -47 14 -95h9q4 42 9 86q5 38 10.5 83t13.5 87l109 606h194l111 -606q7 -42 12.5 -86.5t10.5 -82.5q5 -44 9 -87h8q5 39 12 82q5 37 13 82t18 92l135 606h170l-268 -1077h-186l-113 614q-8 42 -13.5 86t-10.5 80 q-5 42 -9 82h-8q-4 -40 -9 -82q-5 -36 -10.5 -80t-13.5 -86l-110 -614h-187z" />
<glyph unicode="x" horiz-adv-x="840" d="M12 0l313 545l-299 532h204l194 -368l200 368h190l-303 -518l317 -559h-204l-210 394l-218 -394h-184z" />
<glyph unicode="y" horiz-adv-x="840" d="M20 1077h184l238 -835h8l201 835h171l-275 -1022q-24 -88 -55 -166t-72.5 -136t-96 -92t-125.5 -34q-35 0 -64.5 3.5t-55.5 13.5v116h59q34 0 66 11.5t60 39.5t50 74t37 115z" />
<glyph unicode="z" horiz-adv-x="840" d="M53 0v80l474 847h-441v150h672v-77l-475 -851h501v-149h-731z" />
<glyph unicode="{" horiz-adv-x="561" d="M41 503v173q28 0 56 6.5t50.5 20.5t36.5 37.5t14 57.5v404q0 97 26.5 156.5t71 92t103 43.5t122.5 11v-117q-28 0 -57 -5.5t-52.5 -21.5t-38.5 -44.5t-15 -73.5q0 -106 -4.5 -209.5t-9.5 -211.5q-2 -53 -11.5 -94t-30.5 -69.5t-55 -43.5t-83 -15v-20q49 0 83 -15 t55 -43.5t30.5 -70t11.5 -93.5q5 -108 9.5 -211.5t4.5 -209.5q0 -45 15 -73.5t38.5 -44.5t52.5 -21.5t57 -5.5v-117q-64 0 -122.5 11t-103 43.5t-71 92t-26.5 156.5v403q0 34 -14 57.5t-36.5 38t-50.5 20.5t-56 6z" />
<glyph unicode="|" horiz-adv-x="436" d="M137 -354v1835h162v-1835h-162z" />
<glyph unicode="}" horiz-adv-x="561" d="M41 -208q28 0 56.5 5.5t51.5 21.5t38 44.5t15 73.5q0 106 5 209.5t10 211.5q2 52 12 93.5t31 70t54.5 43.5t83.5 15v20q-50 0 -83.5 15t-54.5 43.5t-31 69.5t-12 94q-5 108 -10 211.5t-5 209.5q0 45 -15 73.5t-38 44.5t-51.5 21.5t-56.5 5.5v117q63 0 121.5 -11 t102.5 -43.5t70.5 -92t26.5 -156.5v-404q0 -34 14.5 -57.5t37 -37.5t51 -20.5t56.5 -6.5v-173q-28 0 -56.5 -6t-51 -20.5t-37 -38t-14.5 -57.5v-403q0 -97 -26.5 -156.5t-70.5 -92t-102.5 -43.5t-121.5 -11v117z" />
<glyph unicode="~" horiz-adv-x="981" d="M71 432v188q26 42 61 75q30 28 75 51.5t106 23.5q48 0 91 -19.5t85 -43t86 -43t93 -19.5q34 0 65 10.5t57.5 26.5t47.5 34.5t36.5 35t24.5 27.5q8 11 10 13v-186q-25 -42 -60 -75q-30 -28 -75 -51t-106 -23q-48 0 -91 19.5t-85 43t-86 43t-93 19.5q-52 0 -95.5 -22.5 t-75.5 -50t-50.5 -51t-20.5 -26.5z" />
<glyph unicode="&#xa1;" horiz-adv-x="559" d="M204 -327q17 263 28.5 526.5t23.5 527.5h127q5 -93 10 -199t10 -213.5t10 -210t9 -188.5t7.5 -150t6.5 -93h-232zM219 856v221h205v-221h-205z" />
<glyph unicode="&#xa2;" d="M99 703q0 268 80 405t251 154v219h101v-217q80 -7 137.5 -37.5t94 -84t54 -129t17.5 -171.5h-174q0 123 -28 188.5t-101 81.5v-819q75 15 106 83.5t31 186.5h166q0 -79 -17 -151.5t-53.5 -130t-94 -94.5t-138.5 -46v-242h-101v242q-171 19 -251 155t-80 407zM275 664 q0 -163 35.5 -254.5t119.5 -114.5v813q-82 -22 -118.5 -114t-36.5 -253v-77z" />
<glyph unicode="&#xa3;" d="M39 622v148h147v252q0 204 87.5 306t243.5 102q75 0 136 -21t103.5 -68t66 -123t23.5 -186v-26h-168v32q0 125 -41.5 183.5t-119.5 58.5q-79 0 -120 -54t-41 -171v-285h272v-148h-274l-18 -460h510v-162h-785v162h125v460h-147z" />
<glyph unicode="&#xa4;" d="M-6 325l101 101q-35 58 -54 127.5t-19 147.5q0 75 19 144.5t54 129.5l-101 100l99 98l85 -88q59 57 132 89t157 32q82 0 155 -32t132 -89l88 88l98 -98l-100 -100q34 -60 52.5 -129.5t18.5 -144.5q0 -78 -18.5 -147.5t-52.5 -127.5l100 -101l-98 -97l-88 87 q-59 -55 -132 -87t-155 -32q-84 0 -156 32t-131 87l-87 -87zM162 701q0 -76 23.5 -142t65 -115t97 -77.5t119.5 -28.5q63 0 118 28.5t96.5 77.5t65 115t23.5 142t-23.5 142t-65 115.5t-96.5 78t-118 28.5q-64 0 -119.5 -28.5t-97 -78t-65 -115.5t-23.5 -142z" />
<glyph unicode="&#xa5;" d="M4 1405h194l279 -600h8l273 600h169l-307 -649h263v-134h-326v-143h326v-133h-326v-346h-180v346h-326v133h326v143h-326v134h262z" />
<glyph unicode="&#xa6;" horiz-adv-x="436" d="M137 -354v778h162v-778h-162zM137 703v778h162v-778h-162z" />
<glyph unicode="&#xa7;" d="M139 567q0 50 12 92.5t32.5 76.5t46.5 60.5t53 45.5q-55 46 -89 112.5t-34 168.5q0 71 22.5 128t65.5 96.5t105 61t142 21.5q76 0 134 -23.5t97 -64t59 -94t20 -113.5q0 -11 -1.5 -23.5t-1.5 -16.5h-174v20q0 31 -7 61t-24.5 53.5t-46 38t-71.5 14.5q-44 0 -72 -14.5 t-44.5 -36.5t-22.5 -48t-6 -48q0 -57 21 -98.5t55.5 -73t79 -57.5t90.5 -53t90.5 -58t79 -73t55.5 -98.5t21 -134.5q0 -50 -12.5 -92t-32.5 -76.5t-46 -61.5t-53 -46q26 -23 48.5 -50.5t39 -61t26 -75t9.5 -91.5q0 -72 -22.5 -129t-65.5 -96.5t-105.5 -61t-142.5 -21.5 q-75 0 -133 23.5t-97 64t-59 94t-20 113.5q0 11 1 23.5t1 15.5h174v-18q0 -32 7 -62t24.5 -54t46 -38.5t71.5 -14.5q44 0 72 15t44.5 37t22.5 48t6 48q0 57 -21 98.5t-55.5 73.5t-78.5 58t-90.5 52.5t-90.5 57.5t-78.5 73t-55.5 98.5t-21 133.5zM303 610q0 -70 26 -118.5 t67 -85t92 -66t102 -61.5q32 26 52 68t20 99q0 70 -26 118.5t-67.5 85t-93 65.5t-102.5 61q-33 -25 -51.5 -67t-18.5 -99z" />
<glyph unicode="&#xa8;" horiz-adv-x="559" d="M37 1286v195h178v-195h-178zM344 1286v195h179v-195h-179z" />
<glyph unicode="&#xa9;" horiz-adv-x="1237" d="M43 703q0 166 39.5 300t113.5 229t181 146.5t241 51.5q135 0 241.5 -51.5t181 -146.5t114 -229t39.5 -300t-39.5 -300.5t-114 -229t-181 -146t-241.5 -51.5q-134 0 -241 51.5t-181 146t-113.5 229t-39.5 300.5zM137 703q0 -144 33 -261t95.5 -199.5t151.5 -127t201 -44.5 t201.5 44.5t151.5 127t95.5 199.5t33.5 261q0 143 -33.5 259.5t-95.5 199t-151.5 127t-201.5 44.5t-201 -44.5t-151.5 -127t-95.5 -199t-33 -259.5zM297 713q0 218 82 324t243 106q63 0 116 -19.5t91.5 -58.5t60 -97.5t21.5 -137.5h-119q0 105 -46 155.5t-124 50.5 q-105 0 -154.5 -72t-49.5 -219v-61q0 -147 49.5 -220t154.5 -73q79 0 126.5 51t47.5 154h115q0 -80 -21.5 -138.5t-60 -97t-91.5 -57t-116 -18.5q-161 0 -243 106.5t-82 321.5z" />
<glyph unicode="&#xaa;" horiz-adv-x="621" d="M41 948q0 77 27.5 125.5t76.5 75.5t116 37t147 10v88q0 25 -5 46t-17.5 36.5t-33.5 24t-53 8.5q-31 0 -52 -10t-33.5 -26t-18 -36t-5.5 -41v-20h-121v35q0 51 17.5 89t49 63.5t75 38.5t94.5 13q113 0 168.5 -53.5t55.5 -150.5v-406q0 -25 11 -35t23 -10h47v-84 q-11 -8 -31 -13.5t-46 -5.5q-45 0 -76 24t-43 65q-29 -45 -75 -70t-103 -25q-28 0 -62 7.5t-63.5 29.5t-49.5 62.5t-20 107.5zM168 955q0 -59 23.5 -82t70.5 -23q25 0 51 10.5t47 32.5t34.5 54.5t13.5 76.5v63q-53 0 -97.5 -5t-76 -19.5t-49 -40.5t-17.5 -67z" />
<glyph unicode="&#xab;" d="M111 668l289 409h145l-232 -409l232 -410h-145zM420 668l291 409h143l-230 -409l230 -410h-143z" />
<glyph unicode="&#xac;" horiz-adv-x="981" d="M80 737v190h811v-523h-172v333h-639z" />
<glyph unicode="&#xad;" horiz-adv-x="559" d="M20 453v200h517v-200h-517z" />
<glyph unicode="&#xae;" horiz-adv-x="1237" d="M43 703q0 166 39.5 300t113.5 229t181 146.5t241 51.5q135 0 241.5 -51.5t181 -146.5t114 -229t39.5 -300t-39.5 -300.5t-114 -229t-181 -146t-241.5 -51.5q-134 0 -241 51.5t-181 146t-113.5 229t-39.5 300.5zM137 703q0 -144 33 -261t95.5 -199.5t151.5 -127t201 -44.5 t201.5 44.5t151.5 127t95.5 199.5t33.5 261q0 143 -33.5 259.5t-95.5 199t-151.5 127t-201.5 44.5t-201 -44.5t-151.5 -127t-95.5 -199t-33 -259.5zM356 303v824h330q45 0 84 -15t67 -42.5t44 -66t16 -84.5q0 -36 -10 -67.5t-27.5 -56t-41 -42t-50.5 -26.5v-8 q9 -4 29.5 -16.5t41 -38t36.5 -66t16 -99.5q0 -43 3.5 -71t11 -45t18 -26.5t24.5 -14.5v-35q-8 -3 -25 -6.5t-34 -3.5q-23 0 -44 7.5t-37.5 25.5t-26 48t-9.5 75q0 63 -13 103.5t-32.5 64t-43 32.5t-44.5 9h-166v-359h-117zM473 770h170q62 0 97.5 36t35.5 91q0 59 -35 90 t-92 31h-176v-248z" />
<glyph unicode="&#xaf;" horiz-adv-x="559" d="M24 1226v148h513v-148h-513z" />
<glyph unicode="&#xb0;" horiz-adv-x="819" d="M129 1153q0 58 21.5 108.5t59 88t88 59t108.5 21.5q57 0 107.5 -21.5t88 -59t59 -88t21.5 -108.5q0 -57 -21.5 -107.5t-59 -88t-88 -59t-107.5 -21.5q-58 0 -108.5 21.5t-88 59t-59 88t-21.5 107.5zM238 1153q0 -35 13 -65.5t36 -53t53.5 -36t65.5 -13.5q34 0 64 13.5 t52.5 36t35.5 53t13 65.5t-13 65t-35.5 52.5t-52.5 35.5t-64 13q-35 0 -65.5 -13t-53.5 -35.5t-36 -52.5t-13 -65z" />
<glyph unicode="&#xb1;" horiz-adv-x="1124" d="M160 0v170h803v-170h-803zM160 635v172h315v377h170v-377h318v-172h-318v-375h-170v375h-315z" />
<glyph unicode="&#xb2;" horiz-adv-x="559" d="M49 660v32q0 63 24.5 116.5t61 100.5t79.5 91t79.5 88.5t61 91.5t24.5 102q0 17 -4 35t-14.5 33t-28.5 24.5t-45 9.5q-26 0 -44.5 -10.5t-30 -29t-17 -43t-5.5 -51.5v-64h-129q-1 9 -2 20q-1 9 -1.5 20t-0.5 22q0 68 19 117t51 80t74 45.5t88 14.5t87 -12.5t72 -39 t49 -69t18 -102.5q0 -51 -18 -98.5t-46 -91.5t-62.5 -84.5t-67.5 -76.5q-29 -32 -62 -66.5t-53 -76.5h311v-128h-468z" />
<glyph unicode="&#xb3;" horiz-adv-x="559" d="M47 903v22h131v-26q0 -135 103 -135q51 0 82 32t31 101q0 38 -9.5 62.5t-25.5 39t-37 20t-43 5.5h-73v117h75q40 0 70 30t30 93q0 65 -28.5 94.5t-65.5 29.5q-40 0 -68.5 -31t-28.5 -97v-28h-129v38q0 54 16.5 97t46.5 74t71 47.5t90 16.5q51 0 92 -15.5t70.5 -45 t45.5 -73.5t16 -101q0 -69 -25.5 -111t-71.5 -72q48 -24 79.5 -74t31.5 -122q0 -58 -17.5 -103t-48.5 -76.5t-74 -48t-94 -16.5q-118 0 -180 68.5t-62 187.5z" />
<glyph unicode="&#xb4;" horiz-adv-x="559" d="M139 1210l176 271h184l2 -7l-220 -264h-142z" />
<glyph unicode="&#xb5;" d="M123 -354v1431h168v-786q0 -49 11.5 -81t31.5 -51t48 -26.5t60 -7.5q40 0 76.5 20t64 58t44 92.5t16.5 124.5v657h168v-1077h-127l-22 125h-13q-45 -81 -112.5 -115t-147.5 -34q-28 0 -52.5 3t-45.5 11v-344h-168z" />
<glyph unicode="&#xb6;" horiz-adv-x="901" d="M37 957q0 93 30.5 174.5t83.5 142t124.5 96t154.5 35.5h428v-125h-98v-1634h-136v1634h-107v-1634h-134v865q-74 10 -137 48.5t-109.5 98t-73 136t-26.5 163.5z" />
<glyph unicode="&#xb7;" horiz-adv-x="467" d="M129 590v228h207v-228h-207z" />
<glyph unicode="&#xb8;" horiz-adv-x="559" d="M74 -256h156q34 0 53.5 10t19.5 40q0 24 -14.5 36t-54.5 12h-68l28 180h113l-14 -96q33 -2 63 -10t53 -23.5t36.5 -39.5t13.5 -59q0 -52 -21.5 -84.5t-54 -51t-69.5 -25t-68 -6.5q-44 0 -89.5 4.5t-82.5 12.5v100z" />
<glyph unicode="&#xb9;" horiz-adv-x="559" d="M80 1307v88q24 3 54 11t61.5 20t61.5 26.5t54 30.5h60v-705h150v-118h-439v118h162v529h-164z" />
<glyph unicode="&#xba;" horiz-adv-x="612" d="M43 1123q0 196 67 289t195 93q129 0 195.5 -93t66.5 -289q0 -198 -66 -291t-196 -93q-128 0 -195 93t-67 291zM170 1095q0 -124 33 -185.5t102 -61.5q137 0 137 247v54q0 248 -137 248q-69 0 -102 -62t-33 -186v-54z" />
<glyph unicode="&#xbb;" d="M80 258l229 410l-229 409h144l291 -409l-291 -410h-144zM389 258l231 410l-231 409h146l289 -409l-289 -410h-146z" />
<glyph unicode="&#xbc;" horiz-adv-x="1401" d="M63 1228v89q24 3 54.5 11t62 20t61.5 26.5t54 30.5h59v-704h149v-119h-438v119h163v527h-165zM236 -24l851 1454h127l-850 -1454h-128zM796 196v107q66 118 121 259t93 284h127q-17 -78 -44 -158.5t-56 -152.5t-57.5 -130t-48.5 -92h175v186q7 19 17 45.5t20 57t19.5 63 t15.5 62.5h54v-414h83v-117h-83v-196h-126v196h-310z" />
<glyph unicode="&#xbd;" horiz-adv-x="1401" d="M63 1228v89q24 3 54.5 11t62 20t61.5 26.5t54 30.5h59v-704h149v-119h-438v119h163v527h-165zM213 -24l852 1454h127l-850 -1454h-129zM846 0v33q0 63 24.5 116.5t61 100.5t79.5 91t79.5 88t61 91.5t24.5 101.5q0 17 -4 35.5t-14.5 33.5t-28.5 24.5t-46 9.5 q-26 0 -44 -10.5t-29.5 -29t-17 -43t-5.5 -52.5v-63h-129q-1 9 -2 20q-1 9 -1.5 19.5t-0.5 21.5q0 68 19 117t51 80.5t73.5 46t87.5 14.5t87 -12.5t72 -39.5t49 -69.5t18 -102.5q0 -51 -18 -98t-45.5 -91t-61.5 -84t-67 -76q-30 -32 -63.5 -67.5t-51.5 -76.5h309v-129h-467z " />
<glyph unicode="&#xbe;" horiz-adv-x="1401" d="M55 828v22h131v-26q0 -136 103 -136q51 0 82 32t31 102q0 37 -9.5 61.5t-25.5 38.5t-37 20t-43 6h-72v117h74q40 0 70 30t30 93q0 66 -28.5 95.5t-65.5 29.5q-40 0 -68.5 -31.5t-28.5 -97.5v-27h-129v37q0 54 16.5 97.5t46.5 74t71 47.5t90 17q51 0 92.5 -15.5t71 -45.5 t46 -74t16.5 -101q0 -69 -26.5 -111t-72.5 -71q48 -25 79.5 -74.5t31.5 -121.5q0 -58 -17.5 -103.5t-48.5 -77t-74 -48t-94 -16.5q-118 0 -180 69t-62 188zM219 -24l852 1454h127l-850 -1454h-129zM796 196v107q66 118 121 259t93 284h127q-17 -78 -44 -158.5t-56 -152.5 t-57.5 -130t-48.5 -92h175v186q7 19 17 45.5t20 57t19.5 63t15.5 62.5h54v-414h83v-117h-83v-196h-126v196h-310z" />
<glyph unicode="&#xbf;" horiz-adv-x="1026" d="M143 4q0 95 20 160.5t49.5 114t64 85t64 74t49.5 81t20 105.5v85h178v-115q0 -70 -19 -120t-48 -90.5t-62.5 -76t-62.5 -75t-48 -89t-19 -117.5q0 -14 2.5 -35.5t9.5 -45.5t20 -49t34.5 -45t53 -32.5t74.5 -12.5q62 0 98.5 29.5t55.5 72.5t24.5 90.5t5.5 83.5 q0 12 -0.5 22t-0.5 18q-1 9 -1 15h182q1 -13 3 -26q1 -11 2 -23.5t1 -22.5q0 -90 -24 -166.5t-72 -132t-120.5 -87t-169.5 -31.5q-78 0 -144.5 26t-115.5 73t-76.5 112.5t-27.5 144.5zM398 856v221h204v-221h-204z" />
<glyph unicode="&#xc0;" horiz-adv-x="1120" d="M-2 0l446 1405h232l446 -1405h-194l-97 313h-557l-96 -313h-180zM319 1802l3 6h184l176 -270h-141zM324 477h456l-190 625q-6 17 -11.5 43.5t-10.5 51.5q-5 29 -11 60h-8q-6 -32 -11 -61q-5 -25 -11 -51t-11 -43z" />
<glyph unicode="&#xc1;" horiz-adv-x="1120" d="M-2 0l446 1405h232l446 -1405h-194l-97 313h-557l-96 -313h-180zM324 477h456l-190 625q-6 17 -11.5 43.5t-10.5 51.5q-5 29 -11 60h-8q-6 -32 -11 -61q-5 -25 -11 -51t-11 -43zM438 1538l176 270h185l2 -6l-221 -264h-142z" />
<glyph unicode="&#xc2;" horiz-adv-x="1120" d="M-2 0l446 1405h232l446 -1405h-194l-97 313h-557l-96 -313h-180zM305 1530l176 276h160l174 -276h-164l-90 162l-92 -162h-164zM324 477h456l-190 625q-6 17 -11.5 43.5t-10.5 51.5q-5 29 -11 60h-8q-6 -32 -11 -61q-5 -25 -11 -51t-11 -43z" />
<glyph unicode="&#xc3;" horiz-adv-x="1120" d="M-2 0l446 1405h232l446 -1405h-194l-97 313h-557l-96 -313h-180zM260 1595q0 36 10 73.5t31 68.5t54 51t79 20q33 0 62.5 -9.5t58 -21t57 -21t58.5 -9.5q28 0 46 13t23 48h119q0 -35 -9.5 -73t-30.5 -69t-54 -51t-80 -20q-33 0 -62.5 10t-58 22t-56.5 22t-58 10 q-28 0 -46.5 -14.5t-21.5 -49.5h-121zM324 477h456l-190 625q-6 17 -11.5 43.5t-10.5 51.5q-5 29 -11 60h-8q-6 -32 -11 -61q-5 -25 -11 -51t-11 -43z" />
<glyph unicode="&#xc4;" horiz-adv-x="1120" d="M-2 0l446 1405h232l446 -1405h-194l-97 313h-557l-96 -313h-180zM317 1614v194h179v-194h-179zM324 477h456l-190 625q-6 17 -11.5 43.5t-10.5 51.5q-5 29 -11 60h-8q-6 -32 -11 -61q-5 -25 -11 -51t-11 -43zM625 1614v194h178v-194h-178z" />
<glyph unicode="&#xc5;" horiz-adv-x="1120" d="M-2 0l446 1405h232l446 -1405h-194l-97 313h-557l-96 -313h-180zM324 477h456l-190 625q-6 17 -11.5 43.5t-10.5 51.5q-5 29 -11 60h-8q-6 -32 -11 -61q-5 -25 -11 -51t-11 -43zM362 1677q0 41 15.5 77t42.5 62.5t62.5 42t76.5 15.5q42 0 78.5 -15.5t62.5 -42.5t41 -63 t15 -76q0 -41 -15 -76.5t-41.5 -62t-62.5 -42t-78 -15.5q-40 0 -75.5 15t-62.5 41.5t-43 62.5t-16 77zM455 1677q0 -21 8.5 -40t23 -33.5t33 -22.5t39.5 -8t40 8t33.5 22.5t23 33.5t8.5 40q0 22 -8.5 41t-23 33t-33.5 22.5t-40 8.5t-39.5 -8.5t-33 -22.5t-23 -33t-8.5 -41z " />
<glyph unicode="&#xc6;" horiz-adv-x="1679" d="M-2 0l573 1405h1020v-164h-751l100 -440h561v-164h-524l106 -473h521v-164h-676l-70 313h-559l-121 -313h-180zM362 477h461l-139 635q-5 17 -9 39t-7 42q-4 23 -6 46h-9q-7 -24 -15 -47q-7 -20 -14.5 -41.5t-13.5 -38.5z" />
<glyph unicode="&#xc7;" horiz-adv-x="1212" d="M86 703q0 365 140 546t413 181q107 0 197 -33t155 -99t101.5 -166t36.5 -235h-185q0 92 -21.5 161t-61.5 114.5t-96.5 68.5t-125.5 23q-185 0 -274.5 -126.5t-89.5 -383.5v-103q0 -258 89.5 -384t274.5 -126q71 0 128.5 22.5t98 67.5t62.5 113t22 159h179 q0 -136 -36.5 -235t-101.5 -164t-154.5 -96.5t-196.5 -31.5l-7 -50q33 -2 63 -10t53 -23.5t36.5 -39.5t13.5 -59q0 -52 -21.5 -84.5t-54 -51t-69.5 -25t-68 -6.5q-44 0 -89.5 4.5t-82.5 12.5v100h156q34 0 53.5 10t19.5 40q0 24 -14.5 36t-54.5 12h-68l22 142 q-219 34 -330.5 213t-111.5 506z" />
<glyph unicode="&#xc8;" horiz-adv-x="1120" d="M143 0v1405h867v-164h-686v-440h596v-164h-596v-473h698v-164h-879zM319 1802l3 6h184l176 -270h-141z" />
<glyph unicode="&#xc9;" horiz-adv-x="1120" d="M143 0v1405h867v-164h-686v-440h596v-164h-596v-473h698v-164h-879zM438 1538l176 270h185l2 -6l-221 -264h-142z" />
<glyph unicode="&#xca;" horiz-adv-x="1120" d="M143 0v1405h867v-164h-686v-440h596v-164h-596v-473h698v-164h-879zM305 1530l176 276h160l174 -276h-164l-90 162l-92 -162h-164z" />
<glyph unicode="&#xcb;" horiz-adv-x="1120" d="M143 0v1405h867v-164h-686v-440h596v-164h-596v-473h698v-164h-879zM317 1614v194h179v-194h-179zM625 1614v194h178v-194h-178z" />
<glyph unicode="&#xcc;" horiz-adv-x="467" d="M-7 1802l2 7h185l176 -271h-141zM143 0v1405h180v-1405h-180z" />
<glyph unicode="&#xcd;" horiz-adv-x="467" d="M112 1538l176 271h184l2 -7l-220 -264h-142zM143 0v1405h180v-1405h-180z" />
<glyph unicode="&#xce;" horiz-adv-x="467" d="M-22 1530l177 277h160l175 -277h-164l-90 162l-93 -162h-165zM143 0v1405h180v-1405h-180z" />
<glyph unicode="&#xcf;" horiz-adv-x="467" d="M-9 1614v195h178v-195h-178zM143 0v1405h180v-1405h-180zM298 1614v195h179v-195h-179z" />
<glyph unicode="&#xd0;" horiz-adv-x="1212" d="M10 662v131h133v612h437q124 0 222.5 -43t167.5 -128.5t105.5 -213t36.5 -297.5q0 -180 -36.5 -315.5t-105.5 -226t-167.5 -136t-222.5 -45.5h-437v662h-133zM324 164h239q83 0 149.5 31.5t113.5 94.5t72.5 158.5t25.5 223.5v102q0 117 -25.5 205t-72.5 146t-113.5 87 t-149.5 29h-239v-448h321v-131h-321v-498z" />
<glyph unicode="&#xd1;" horiz-adv-x="1212" d="M143 0v1405h156l523 -882q11 -20 25.5 -52.5t28.5 -62.5q15 -36 31 -74l6 2q-2 40 -3 76q-2 31 -2.5 62.5t-0.5 48.5v882h162v-1405h-150l-525 895q-14 23 -29.5 54.5t-29.5 61.5q-16 34 -32 72l-6 -2q2 -37 4 -71q2 -29 3 -61t1 -54v-895h-162zM307 1596q0 35 10 73 t31 69t54 51t79 20q33 0 62.5 -10t58 -21.5t56.5 -21.5t58 -10q28 0 46.5 14t23.5 49h119q0 -36 -10 -73.5t-31 -68.5t-54 -51t-79 -20q-33 0 -63 10t-58.5 21.5t-56.5 21.5t-58 10q-28 0 -46 -14t-23 -49h-119z" />
<glyph unicode="&#xd2;" horiz-adv-x="1307" d="M101 703q0 183 38 319t109 227t173.5 136t231.5 45t232 -45t174 -136t109 -227t38 -319t-38 -319.5t-109 -227t-174 -135.5t-232 -45t-231.5 45t-173.5 135.5t-109 227t-38 319.5zM289 651q0 -128 25 -224t72.5 -159.5t115 -95t151.5 -31.5q85 0 152.5 31.5t114.5 95 t72.5 159.5t25.5 224v103q0 128 -25.5 223.5t-72.5 159.5t-114.5 95.5t-152.5 31.5q-84 0 -151.5 -31.5t-115 -95.5t-72.5 -159.5t-25 -223.5v-103zM413 1802l2 7h185l176 -271h-141z" />
<glyph unicode="&#xd3;" horiz-adv-x="1307" d="M101 703q0 183 38 319t109 227t173.5 136t231.5 45t232 -45t174 -136t109 -227t38 -319t-38 -319.5t-109 -227t-174 -135.5t-232 -45t-231.5 45t-173.5 135.5t-109 227t-38 319.5zM289 651q0 -128 25 -224t72.5 -159.5t115 -95t151.5 -31.5q85 0 152.5 31.5t114.5 95 t72.5 159.5t25.5 224v103q0 128 -25.5 223.5t-72.5 159.5t-114.5 95.5t-152.5 31.5q-84 0 -151.5 -31.5t-115 -95.5t-72.5 -159.5t-25 -223.5v-103zM532 1538l176 271h184l2 -7l-220 -264h-142z" />
<glyph unicode="&#xd4;" horiz-adv-x="1307" d="M101 703q0 183 38 319t109 227t173.5 136t231.5 45t232 -45t174 -136t109 -227t38 -319t-38 -319.5t-109 -227t-174 -135.5t-232 -45t-231.5 45t-173.5 135.5t-109 227t-38 319.5zM289 651q0 -128 25 -224t72.5 -159.5t115 -95t151.5 -31.5q85 0 152.5 31.5t114.5 95 t72.5 159.5t25.5 224v103q0 128 -25.5 223.5t-72.5 159.5t-114.5 95.5t-152.5 31.5q-84 0 -151.5 -31.5t-115 -95.5t-72.5 -159.5t-25 -223.5v-103zM399 1530l176 277h160l175 -277h-164l-90 162l-93 -162h-164z" />
<glyph unicode="&#xd5;" horiz-adv-x="1307" d="M101 703q0 183 38 319t109 227t173.5 136t231.5 45t232 -45t174 -136t109 -227t38 -319t-38 -319.5t-109 -227t-174 -135.5t-232 -45t-231.5 45t-173.5 135.5t-109 227t-38 319.5zM289 651q0 -128 25 -224t72.5 -159.5t115 -95t151.5 -31.5q85 0 152.5 31.5t114.5 95 t72.5 159.5t25.5 224v103q0 128 -25.5 223.5t-72.5 159.5t-114.5 95.5t-152.5 31.5q-84 0 -151.5 -31.5t-115 -95.5t-72.5 -159.5t-25 -223.5v-103zM355 1596q0 35 10 73t31 69t54 51t79 20q33 0 62.5 -10t58 -21.5t56.5 -21.5t58 -10q28 0 46.5 14t23.5 49h119 q0 -36 -10 -73.5t-31 -68.5t-54 -51t-79 -20q-33 0 -63 10t-58.5 21.5t-56.5 21.5t-58 10q-28 0 -46 -14t-23 -49h-119z" />
<glyph unicode="&#xd6;" horiz-adv-x="1307" d="M101 703q0 183 38 319t109 227t173.5 136t231.5 45t232 -45t174 -136t109 -227t38 -319t-38 -319.5t-109 -227t-174 -135.5t-232 -45t-231.5 45t-173.5 135.5t-109 227t-38 319.5zM289 651q0 -128 25 -224t72.5 -159.5t115 -95t151.5 -31.5q85 0 152.5 31.5t114.5 95 t72.5 159.5t25.5 224v103q0 128 -25.5 223.5t-72.5 159.5t-114.5 95.5t-152.5 31.5q-84 0 -151.5 -31.5t-115 -95.5t-72.5 -159.5t-25 -223.5v-103zM411 1614v195h178v-195h-178zM718 1614v195h179v-195h-179z" />
<glyph unicode="&#xd7;" horiz-adv-x="981" d="M78 213l313 310l-313 311q29 31 57 60t55 61l315 -312l315 312q29 -32 56.5 -61t54.5 -60l-313 -311l313 -310q-29 -31 -56.5 -60.5t-54.5 -59.5q-79 76 -158 152.5t-157 154.5l-315 -307q-27 30 -55 59.5t-57 60.5z" />
<glyph unicode="&#xd8;" horiz-adv-x="1307" d="M101 703q0 183 38 319t109 227t173.5 136t231.5 45q196 0 326 -103l96 154h131l-147 -233q71 -91 109 -227t38 -318q0 -183 -38 -319.5t-109 -227t-174 -135.5t-232 -45q-97 0 -178.5 24.5t-147.5 75.5l-93 -152h-131l145 232q-72 91 -109.5 227t-37.5 320zM289 651 q0 -103 16 -184t47 -144l533 853q-93 88 -232 88q-84 0 -151.5 -31.5t-115 -95.5t-72.5 -159.5t-25 -223.5v-103zM422 228q88 -87 231 -87q85 0 152.5 31.5t114.5 95t72.5 159.5t25.5 224v103q0 102 -16 183t-47 142z" />
<glyph unicode="&#xd9;" horiz-adv-x="1212" d="M143 457v948h180v-959q0 -149 75.5 -227t207.5 -78t207.5 78t75.5 227v959h180v-948q0 -119 -31.5 -208.5t-91.5 -150.5t-146 -91.5t-194 -30.5t-194 30.5t-146 91.5t-91.5 150.5t-31.5 208.5zM365 1802l2 7h185l176 -271h-141z" />
<glyph unicode="&#xda;" horiz-adv-x="1212" d="M143 457v948h180v-959q0 -149 75.5 -227t207.5 -78t207.5 78t75.5 227v959h180v-948q0 -119 -31.5 -208.5t-91.5 -150.5t-146 -91.5t-194 -30.5t-194 30.5t-146 91.5t-91.5 150.5t-31.5 208.5zM484 1538l176 271h184l2 -7l-220 -264h-142z" />
<glyph unicode="&#xdb;" horiz-adv-x="1212" d="M143 457v948h180v-959q0 -149 75.5 -227t207.5 -78t207.5 78t75.5 227v959h180v-948q0 -119 -31.5 -208.5t-91.5 -150.5t-146 -91.5t-194 -30.5t-194 30.5t-146 91.5t-91.5 150.5t-31.5 208.5zM351 1530l176 277h160l175 -277h-164l-90 162l-93 -162h-164z" />
<glyph unicode="&#xdc;" horiz-adv-x="1212" d="M143 457v948h180v-959q0 -149 75.5 -227t207.5 -78t207.5 78t75.5 227v959h180v-948q0 -119 -31.5 -208.5t-91.5 -150.5t-146 -91.5t-194 -30.5t-194 30.5t-146 91.5t-91.5 150.5t-31.5 208.5zM363 1614v195h178v-195h-178zM670 1614v195h179v-195h-179z" />
<glyph unicode="&#xdd;" horiz-adv-x="1120" d="M16 1405h199l356 -651h9l349 651h175l-453 -823v-582h-180v582zM438 1538l176 271h184l2 -7l-220 -264h-142z" />
<glyph unicode="&#xde;" horiz-adv-x="1120" d="M143 0v1405h181v-279h321q104 0 182.5 -29.5t131.5 -83.5t79.5 -129.5t26.5 -166.5q0 -93 -29 -169.5t-83.5 -131.5t-132.5 -85t-175 -30h-321v-301h-181zM324 465h315q54 0 97.5 18t75 51t48.5 79.5t17 103.5q0 114 -61 180t-177 66h-315v-498z" />
<glyph unicode="&#xdf;" horiz-adv-x="1026" d="M103 0v1057q0 120 32.5 205t89 139t132.5 79t164 25q82 0 152.5 -26t122 -75.5t80.5 -120t29 -160.5q0 -51 -14 -100t-39.5 -91t-61.5 -74t-79 -49v-9q52 -19 95.5 -56t75 -85t49 -105t17.5 -116q0 -99 -31.5 -180t-87 -138t-130 -88.5t-160.5 -31.5h-154v152h138 q53 0 99 22.5t80.5 61.5t54 91.5t19.5 112.5q0 57 -19.5 107.5t-54 88t-80.5 59.5t-99 22h-138v149h120q47 0 88.5 20t72.5 54.5t49 80t18 96.5q0 54 -14.5 98t-43 75.5t-70 48.5t-96.5 17q-54 0 -98.5 -18.5t-75.5 -55.5t-48 -92.5t-17 -128.5v-1061h-167z" />
<glyph unicode="&#xe0;" d="M69 279q0 111 41 181.5t114 110t173 54t217 14.5v139q0 39 -7 71t-26 55t-52 36t-85 13q-48 0 -79.5 -15t-50.5 -39.5t-27 -55t-8 -61.5v-24h-166q-2 9 -2 19v25q0 74 25.5 130.5t71.5 94t109.5 56.5t139.5 19q163 0 244 -79.5t81 -222.5v-604q0 -38 18 -54.5t40 -16.5 h65v-117q-14 -8 -42 -16t-69 -8q-66 0 -110 36.5t-60 96.5h-10q-42 -67 -109.5 -104t-152.5 -37q-27 0 -58 4.5t-62.5 16t-61 33t-52 55t-36 81.5t-13.5 113zM217 1474l2 7h185l176 -271h-141zM246 289q0 -92 37 -128t108 -36q40 0 79.5 16.5t71.5 49.5t52 83t20 117v98 q-82 0 -149.5 -7.5t-116 -29.5t-75.5 -61t-27 -102z" />
<glyph unicode="&#xe1;" d="M69 279q0 111 41 181.5t114 110t173 54t217 14.5v139q0 39 -7 71t-26 55t-52 36t-85 13q-48 0 -79.5 -15t-50.5 -39.5t-27 -55t-8 -61.5v-24h-166q-2 9 -2 19v25q0 74 25.5 130.5t71.5 94t109.5 56.5t139.5 19q163 0 244 -79.5t81 -222.5v-604q0 -38 18 -54.5t40 -16.5 h65v-117q-14 -8 -42 -16t-69 -8q-66 0 -110 36.5t-60 96.5h-10q-42 -67 -109.5 -104t-152.5 -37q-27 0 -58 4.5t-62.5 16t-61 33t-52 55t-36 81.5t-13.5 113zM246 289q0 -92 37 -128t108 -36q40 0 79.5 16.5t71.5 49.5t52 83t20 117v98q-82 0 -149.5 -7.5t-116 -29.5 t-75.5 -61t-27 -102zM336 1210l176 271h184l2 -7l-220 -264h-142z" />
<glyph unicode="&#xe2;" d="M69 279q0 111 41 181.5t114 110t173 54t217 14.5v139q0 39 -7 71t-26 55t-52 36t-85 13q-48 0 -79.5 -15t-50.5 -39.5t-27 -55t-8 -61.5v-24h-166q-2 9 -2 19v25q0 74 25.5 130.5t71.5 94t109.5 56.5t139.5 19q163 0 244 -79.5t81 -222.5v-604q0 -38 18 -54.5t40 -16.5 h65v-117q-14 -8 -42 -16t-69 -8q-66 0 -110 36.5t-60 96.5h-10q-42 -67 -109.5 -104t-152.5 -37q-27 0 -58 4.5t-62.5 16t-61 33t-52 55t-36 81.5t-13.5 113zM212 1202l176 277h160l175 -277h-164l-90 162l-93 -162h-164zM246 289q0 -92 37 -128t108 -36q40 0 79.5 16.5 t71.5 49.5t52 83t20 117v98q-82 0 -149.5 -7.5t-116 -29.5t-75.5 -61t-27 -102z" />
<glyph unicode="&#xe3;" d="M69 279q0 111 41 181.5t114 110t173 54t217 14.5v139q0 39 -7 71t-26 55t-52 36t-85 13q-48 0 -79.5 -15t-50.5 -39.5t-27 -55t-8 -61.5v-24h-166q-2 9 -2 19v25q0 74 25.5 130.5t71.5 94t109.5 56.5t139.5 19q163 0 244 -79.5t81 -222.5v-604q0 -38 18 -54.5t40 -16.5 h65v-117q-14 -8 -42 -16t-69 -8q-66 0 -110 36.5t-60 96.5h-10q-42 -67 -109.5 -104t-152.5 -37q-27 0 -58 4.5t-62.5 16t-61 33t-52 55t-36 81.5t-13.5 113zM168 1268q0 35 10 73t31 69t54 51t79 20q33 0 62.5 -10t58 -21.5t56.5 -21.5t58 -10q28 0 46.5 14t23.5 49h119 q0 -36 -10 -73.5t-31 -68.5t-54 -51t-79 -20q-33 0 -63 10t-58.5 21.5t-56.5 21.5t-58 10q-28 0 -46 -14t-23 -49h-119zM246 289q0 -92 37 -128t108 -36q40 0 79.5 16.5t71.5 49.5t52 83t20 117v98q-82 0 -149.5 -7.5t-116 -29.5t-75.5 -61t-27 -102z" />
<glyph unicode="&#xe4;" d="M69 279q0 111 41 181.5t114 110t173 54t217 14.5v139q0 39 -7 71t-26 55t-52 36t-85 13q-48 0 -79.5 -15t-50.5 -39.5t-27 -55t-8 -61.5v-24h-166q-2 9 -2 19v25q0 74 25.5 130.5t71.5 94t109.5 56.5t139.5 19q163 0 244 -79.5t81 -222.5v-604q0 -38 18 -54.5t40 -16.5 h65v-117q-14 -8 -42 -16t-69 -8q-66 0 -110 36.5t-60 96.5h-10q-42 -67 -109.5 -104t-152.5 -37q-27 0 -58 4.5t-62.5 16t-61 33t-52 55t-36 81.5t-13.5 113zM224 1286v195h178v-195h-178zM246 289q0 -92 37 -128t108 -36q40 0 79.5 16.5t71.5 49.5t52 83t20 117v98 q-82 0 -149.5 -7.5t-116 -29.5t-75.5 -61t-27 -102zM531 1286v195h179v-195h-179z" />
<glyph unicode="&#xe5;" d="M69 279q0 111 41 181.5t114 110t173 54t217 14.5v139q0 39 -7 71t-26 55t-52 36t-85 13q-48 0 -79.5 -15t-50.5 -39.5t-27 -55t-8 -61.5v-24h-166q-2 9 -2 19v25q0 74 25.5 130.5t71.5 94t109.5 56.5t139.5 19q163 0 244 -79.5t81 -222.5v-604q0 -38 18 -54.5t40 -16.5 h65v-117q-14 -8 -42 -16t-69 -8q-66 0 -110 36.5t-60 96.5h-10q-42 -67 -109.5 -104t-152.5 -37q-27 0 -58 4.5t-62.5 16t-61 33t-52 55t-36 81.5t-13.5 113zM246 289q0 -92 37 -128t108 -36q40 0 79.5 16.5t71.5 49.5t52 83t20 117v98q-82 0 -149.5 -7.5t-116 -29.5 t-75.5 -61t-27 -102zM270 1349q0 41 15.5 76.5t42 62t62.5 42t77 15.5q42 0 77.5 -15.5t62 -42.5t41.5 -62.5t15 -75.5q0 -41 -15.5 -77t-42 -62.5t-62 -42t-76.5 -15.5q-40 0 -76 15t-63 41.5t-42.5 62.5t-15.5 78zM362 1349q0 -21 8.5 -40.5t22.5 -33.5t33.5 -22.5 t40.5 -8.5t39.5 8.5t33 22.5t23 33.5t8.5 40.5t-8.5 40t-23 33.5t-33 22.5t-39.5 8t-40.5 -8t-33.5 -22.5t-22.5 -33.5t-8.5 -40z" />
<glyph unicode="&#xe6;" horiz-adv-x="1493" d="M82 279q0 111 41 181.5t113.5 110t172.5 54t217 14.5v139q0 39 -7 71t-26 55t-52 36t-84 13q-48 0 -80 -15t-51 -39.5t-27 -55t-8 -61.5v-24h-166q-2 9 -2 19v25q0 74 25.5 130.5t71.5 94t109.5 56.5t139.5 19q99 0 168.5 -31.5t107.5 -91.5q52 63 122.5 93t164.5 30 q88 0 154.5 -28.5t111 -89.5t66.5 -157t22 -231v-107h-584q2 -189 59 -276.5t177 -87.5q40 0 73.5 16.5t57.5 48t37.5 76.5t13.5 101h166q0 -91 -25.5 -163.5t-72 -123t-111.5 -77.5t-143 -27q-112 0 -194 38t-133 125q-58 -75 -137.5 -119t-173.5 -44q-50 0 -105.5 10.5 t-102 43t-76.5 92t-30 157.5zM258 289q0 -92 37.5 -128t108.5 -36q39 0 79 15.5t71.5 46.5t51.5 78t20 110v114q-82 0 -149.5 -7.5t-116 -29.5t-75.5 -61t-27 -102zM805 639h405q0 155 -45 234.5t-133 79.5q-56 0 -96.5 -20t-67.5 -59.5t-42 -98t-21 -136.5z" />
<glyph unicode="&#xe7;" horiz-adv-x="840" d="M74 539q0 289 89.5 426t278.5 137q88 0 150.5 -27.5t102.5 -81.5t58.5 -133t18.5 -182h-174q0 70 -7.5 121.5t-25.5 85.5t-48 51t-75 17q-100 0 -146 -94t-46 -281v-79q0 -186 45 -280t147 -94q45 0 76.5 18t51 53t28 86t8.5 118h166q0 -83 -17.5 -158.5t-55.5 -133.5 t-98.5 -93t-146.5 -38l-7 -51q33 -2 63 -10t53 -23.5t36.5 -39.5t13.5 -59q0 -52 -21.5 -84.5t-54 -51t-69.5 -25t-68 -6.5q-44 0 -89.5 4.5t-82.5 12.5v100h156q34 0 53.5 10t19.5 40q0 24 -14.5 36t-54.5 12h-68l22 145q-138 32 -203 167.5t-65 384.5z" />
<glyph unicode="&#xe8;" d="M86 539q0 289 101.5 426t303.5 137q88 0 155 -28.5t111 -89.5t66.5 -157t22.5 -231v-107h-584q1 -188 58.5 -276t176.5 -88q40 0 73.5 16.5t58 48t38 76.5t13.5 101h166q0 -91 -25.5 -163.5t-72 -123t-111.5 -77.5t-144 -27q-100 0 -176 31.5t-127.5 100t-77.5 175 t-26 256.5zM250 1474l2 7h185l176 -271h-141zM264 639h406q0 155 -45.5 234.5t-133.5 79.5q-56 0 -96.5 -20t-67.5 -59.5t-42 -98t-21 -136.5z" />
<glyph unicode="&#xe9;" d="M86 539q0 289 101.5 426t303.5 137q88 0 155 -28.5t111 -89.5t66.5 -157t22.5 -231v-107h-584q1 -188 58.5 -276t176.5 -88q40 0 73.5 16.5t58 48t38 76.5t13.5 101h166q0 -91 -25.5 -163.5t-72 -123t-111.5 -77.5t-144 -27q-100 0 -176 31.5t-127.5 100t-77.5 175 t-26 256.5zM264 639h406q0 155 -45.5 234.5t-133.5 79.5q-56 0 -96.5 -20t-67.5 -59.5t-42 -98t-21 -136.5zM369 1210l176 271h184l2 -7l-220 -264h-142z" />
<glyph unicode="&#xea;" d="M86 539q0 289 101.5 426t303.5 137q88 0 155 -28.5t111 -89.5t66.5 -157t22.5 -231v-107h-584q1 -188 58.5 -276t176.5 -88q40 0 73.5 16.5t58 48t38 76.5t13.5 101h166q0 -91 -25.5 -163.5t-72 -123t-111.5 -77.5t-144 -27q-100 0 -176 31.5t-127.5 100t-77.5 175 t-26 256.5zM212 1202l176 277h160l175 -277h-164l-90 162l-93 -162h-164zM264 639h406q0 155 -45.5 234.5t-133.5 79.5q-56 0 -96.5 -20t-67.5 -59.5t-42 -98t-21 -136.5z" />
<glyph unicode="&#xeb;" d="M86 539q0 289 101.5 426t303.5 137q88 0 155 -28.5t111 -89.5t66.5 -157t22.5 -231v-107h-584q1 -188 58.5 -276t176.5 -88q40 0 73.5 16.5t58 48t38 76.5t13.5 101h166q0 -91 -25.5 -163.5t-72 -123t-111.5 -77.5t-144 -27q-100 0 -176 31.5t-127.5 100t-77.5 175 t-26 256.5zM224 1286v195h178v-195h-178zM264 639h406q0 155 -45.5 234.5t-133.5 79.5q-56 0 -96.5 -20t-67.5 -59.5t-42 -98t-21 -136.5zM531 1286v195h179v-195h-179z" />
<glyph unicode="&#xec;" horiz-adv-x="467" d="M-7 1474l2 7h185l176 -271h-141zM149 0v1077h168v-1077h-168z" />
<glyph unicode="&#xed;" horiz-adv-x="467" d="M112 1210l176 271h184l2 -7l-220 -264h-142zM149 0v1077h168v-1077h-168z" />
<glyph unicode="&#xee;" horiz-adv-x="467" d="M-22 1202l177 277h160l175 -277h-164l-90 162l-93 -162h-165zM149 0v1077h168v-1077h-168z" />
<glyph unicode="&#xef;" horiz-adv-x="467" d="M-9 1286v195h178v-195h-178zM149 0v1077h168v-1077h-168zM298 1286v195h179v-195h-179z" />
<glyph unicode="&#xf0;" d="M82 539q0 149 27 255.5t75 175t114.5 100.5t145.5 32q28 0 54 -7t49 -18q-24 45 -53.5 87t-61.5 86l-242 -22v123l146 13q-23 26 -46.5 53.5t-49.5 54.5l4 9h180q23 -25 46.5 -50t46.5 -51l239 23v-123l-146 -14q55 -75 99.5 -156t76 -171t49 -189.5t17.5 -210.5 q0 -290 -98 -426.5t-287 -136.5t-287 136.5t-98 426.5zM258 499q0 -186 51.5 -280t157.5 -94q105 0 157 94t52 280v79q0 187 -53 281t-156 94q-106 0 -157.5 -94t-51.5 -281v-79z" />
<glyph unicode="&#xf1;" d="M123 0v1077h127l23 -124h12q45 80 112 114.5t148 34.5q61 0 110 -17t83.5 -56t53.5 -101t19 -152v-776h-168v764q0 56 -11 92.5t-31 58t-48 30t-62 8.5q-40 0 -76 -20t-63.5 -58t-44 -93t-16.5 -125v-657h-168zM168 1268q0 35 10 73t31 69t54 51t79 20q33 0 62.5 -10 t58 -21.5t56.5 -21.5t58 -10q28 0 46.5 14t23.5 49h119q0 -36 -10 -73.5t-31 -68.5t-54 -51t-79 -20q-33 0 -63 10t-58.5 21.5t-56.5 21.5t-58 10q-28 0 -46 -14t-23 -49h-119z" />
<glyph unicode="&#xf2;" d="M82 539q0 289 98 426t287 137t287 -137t98 -426q0 -290 -98 -426.5t-287 -136.5t-287 136.5t-98 426.5zM226 1474l2 7h185l176 -271h-141zM258 499q0 -186 51.5 -280t157.5 -94q105 0 157 94t52 280v79q0 187 -52 281t-157 94q-106 0 -157.5 -94t-51.5 -281v-79z" />
<glyph unicode="&#xf3;" d="M82 539q0 289 98 426t287 137t287 -137t98 -426q0 -290 -98 -426.5t-287 -136.5t-287 136.5t-98 426.5zM258 499q0 -186 51.5 -280t157.5 -94q105 0 157 94t52 280v79q0 187 -52 281t-157 94q-106 0 -157.5 -94t-51.5 -281v-79zM345 1210l176 271h184l2 -7l-220 -264 h-142z" />
<glyph unicode="&#xf4;" d="M82 539q0 289 98 426t287 137t287 -137t98 -426q0 -290 -98 -426.5t-287 -136.5t-287 136.5t-98 426.5zM212 1202l176 277h160l175 -277h-164l-90 162l-93 -162h-164zM258 499q0 -186 51.5 -280t157.5 -94q105 0 157 94t52 280v79q0 187 -52 281t-157 94 q-106 0 -157.5 -94t-51.5 -281v-79z" />
<glyph unicode="&#xf5;" d="M82 539q0 289 98 426t287 137t287 -137t98 -426q0 -290 -98 -426.5t-287 -136.5t-287 136.5t-98 426.5zM168 1268q0 35 10 73t31 69t54 51t79 20q33 0 62.5 -10t58 -21.5t56.5 -21.5t58 -10q28 0 46.5 14t23.5 49h119q0 -36 -10 -73.5t-31 -68.5t-54 -51t-79 -20 q-33 0 -63 10t-58.5 21.5t-56.5 21.5t-58 10q-28 0 -46 -14t-23 -49h-119zM258 499q0 -186 51.5 -280t157.5 -94q105 0 157 94t52 280v79q0 187 -52 281t-157 94q-106 0 -157.5 -94t-51.5 -281v-79z" />
<glyph unicode="&#xf6;" d="M82 539q0 289 98 426t287 137t287 -137t98 -426q0 -290 -98 -426.5t-287 -136.5t-287 136.5t-98 426.5zM224 1286v195h178v-195h-178zM258 499q0 -186 51.5 -280t157.5 -94q105 0 157 94t52 280v79q0 187 -52 281t-157 94q-106 0 -157.5 -94t-51.5 -281v-79zM531 1286 v195h179v-195h-179z" />
<glyph unicode="&#xf7;" horiz-adv-x="1124" d="M88 436v172h946v-172h-946zM475 105v184h172v-184h-172zM475 756v186h172v-186h-172z" />
<glyph unicode="&#xf8;" horiz-adv-x="1026" d="M127 -65l97 178q-48 69 -72.5 174t-24.5 252q0 289 98 426t286 137q131 0 216 -64l57 105h113l-99 -178q99 -140 99 -426q0 -290 -98 -426.5t-288 -136.5q-64 0 -118.5 15.5t-97.5 47.5l-55 -104h-113zM303 499q0 -60 4.5 -110t15.5 -92l324 594q-54 62 -136 62 q-104 0 -156 -94t-52 -281v-79zM377 186q49 -61 134 -61q106 0 158 94t52 280v79q0 60 -5.5 110t-16.5 90z" />
<glyph unicode="&#xf9;" d="M123 301v776h168v-764q0 -56 11 -92.5t31 -57.5t47.5 -29.5t61.5 -8.5q40 0 76.5 20t64 58t44 92.5t16.5 124.5v657h168v-1077h-127l-22 125h-13q-45 -81 -112.5 -115t-147.5 -34q-60 0 -109.5 17t-84 55.5t-53.5 100.5t-19 152zM226 1474l2 7h185l176 -271h-141z" />
<glyph unicode="&#xfa;" d="M123 301v776h168v-764q0 -56 11 -92.5t31 -57.5t47.5 -29.5t61.5 -8.5q40 0 76.5 20t64 58t44 92.5t16.5 124.5v657h168v-1077h-127l-22 125h-13q-45 -81 -112.5 -115t-147.5 -34q-60 0 -109.5 17t-84 55.5t-53.5 100.5t-19 152zM345 1210l176 271h184l2 -7l-220 -264 h-142z" />
<glyph unicode="&#xfb;" d="M123 301v776h168v-764q0 -56 11 -92.5t31 -57.5t47.5 -29.5t61.5 -8.5q40 0 76.5 20t64 58t44 92.5t16.5 124.5v657h168v-1077h-127l-22 125h-13q-45 -81 -112.5 -115t-147.5 -34q-60 0 -109.5 17t-84 55.5t-53.5 100.5t-19 152zM212 1202l176 277h160l175 -277h-164 l-90 162l-93 -162h-164z" />
<glyph unicode="&#xfc;" d="M123 301v776h168v-764q0 -56 11 -92.5t31 -57.5t47.5 -29.5t61.5 -8.5q40 0 76.5 20t64 58t44 92.5t16.5 124.5v657h168v-1077h-127l-22 125h-13q-45 -81 -112.5 -115t-147.5 -34q-60 0 -109.5 17t-84 55.5t-53.5 100.5t-19 152zM224 1286v195h178v-195h-178zM531 1286 v195h179v-195h-179z" />
<glyph unicode="&#xfd;" horiz-adv-x="840" d="M20 1077h184l238 -835h8l201 835h171l-275 -1022q-24 -88 -55 -166t-72.5 -136t-96 -92t-125.5 -34q-35 0 -64.5 3.5t-55.5 13.5v116h59q34 0 66 11.5t60 39.5t50 74t37 115zM298 1210l176 271h184l2 -7l-220 -264h-142z" />
<glyph unicode="&#xfe;" d="M123 -354v1835h168v-498l8 -2q32 56 90 88.5t130 32.5q76 0 138 -33t105 -102t66.5 -175.5t23.5 -254.5q0 -147 -25 -253t-68.5 -174.5t-102 -101t-125.5 -32.5q-79 0 -140.5 31t-89.5 88h-10v-449h-168zM291 499q0 -186 47.5 -280t144.5 -94q48 0 84.5 21t60.5 66 t36 116t12 171v79q0 100 -12 171.5t-36 116.5t-60.5 66t-84.5 21q-97 0 -144.5 -94t-47.5 -281v-79z" />
<glyph unicode="&#xff;" horiz-adv-x="840" d="M20 1077h184l238 -835h8l201 835h171l-275 -1022q-24 -88 -55 -166t-72.5 -136t-96 -92t-125.5 -34q-35 0 -64.5 3.5t-55.5 13.5v116h59q34 0 66 11.5t60 39.5t50 74t37 115zM177 1286v195h178v-195h-178zM484 1286v195h179v-195h-179z" />
<glyph unicode="&#x152;" horiz-adv-x="1679" d="M100 702q0 183 31 319.5t90 227.5t144.5 136t193.5 45q197 0 311 -164v139h723v-164h-542v-440h450v-164h-450v-473h555v-164h-736v139q-112 -164 -311 -164q-108 0 -193.5 45t-144.5 136t-90 227t-31 319zM289 651q0 -257 77.5 -383.5t213.5 -126.5q135 0 212.5 126.5 t77.5 383.5v103q0 256 -77.5 383t-212.5 127q-136 0 -213.5 -127t-77.5 -383v-103z" />
<glyph unicode="&#x153;" horiz-adv-x="1585" d="M109 539q0 289 98 426t286 137q205 0 299 -158q101 158 320 158q88 0 154.5 -28.5t110.5 -89.5t66.5 -157t22.5 -231v-107h-583q1 -188 58.5 -276t177.5 -88q39 0 72.5 16.5t58 48t38 76.5t13.5 101h165q0 -91 -25.5 -163.5t-72 -123t-111 -77.5t-142.5 -27 q-110 0 -191 36.5t-132 118.5q-48 -81 -123.5 -118t-175.5 -37q-188 0 -286 136.5t-98 426.5zM285 499q0 -186 51.5 -280t156.5 -94q106 0 158 94t52 280v79q0 187 -52 281t-158 94q-105 0 -156.5 -94t-51.5 -281v-79zM885 639h405q0 155 -45 234.5t-133 79.5 q-56 0 -96.5 -20t-67.5 -59.5t-42.5 -98t-20.5 -136.5z" />
<glyph unicode="&#x178;" horiz-adv-x="1120" d="M16 1405h199l356 -651h9l349 651h175l-453 -823v-582h-180v582zM317 1614v195h178v-195h-178zM624 1614v195h179v-195h-179z" />
<glyph unicode="&#x2c6;" horiz-adv-x="559" d="M20 1202l176 277h160l175 -277h-164l-90 162l-93 -162h-164z" />
<glyph unicode="&#x2dc;" horiz-adv-x="559" d="M-20 1268q0 35 10 73t31 69t54 51t79 20q33 0 62.5 -10t58 -21.5t56.5 -21.5t58 -10q28 0 46.5 14t23.5 49h119q0 -36 -10 -73.5t-31 -68.5t-54 -51t-79 -20q-33 0 -63 10t-58.5 21.5t-56.5 21.5t-58 10q-28 0 -46 -14t-23 -49h-119z" />
<glyph unicode="&#x2000;" horiz-adv-x="937" />
<glyph unicode="&#x2001;" horiz-adv-x="1874" />
<glyph unicode="&#x2002;" horiz-adv-x="937" />
<glyph unicode="&#x2003;" horiz-adv-x="1874" />
<glyph unicode="&#x2004;" horiz-adv-x="624" />
<glyph unicode="&#x2005;" horiz-adv-x="468" />
<glyph unicode="&#x2006;" horiz-adv-x="312" />
<glyph unicode="&#x2007;" horiz-adv-x="312" />
<glyph unicode="&#x2008;" horiz-adv-x="234" />
<glyph unicode="&#x2009;" horiz-adv-x="374" />
<glyph unicode="&#x200a;" horiz-adv-x="104" />
<glyph unicode="&#x2010;" horiz-adv-x="559" d="M20 453v200h517v-200h-517z" />
<glyph unicode="&#x2011;" horiz-adv-x="559" d="M20 453v200h517v-200h-517z" />
<glyph unicode="&#x2012;" horiz-adv-x="559" d="M20 453v200h517v-200h-517z" />
<glyph unicode="&#x2013;" d="M0 477v153h931v-153h-931z" />
<glyph unicode="&#x2014;" horiz-adv-x="1679" d="M0 477v153h1679v-153h-1679z" />
<glyph unicode="&#x2018;" horiz-adv-x="373" d="M84 929v204l98 272h107l-83 -254h83v-222h-205z" />
<glyph unicode="&#x2019;" horiz-adv-x="373" d="M84 929l82 255h-82v221h205v-203l-99 -273h-106z" />
<glyph unicode="&#x201a;" horiz-adv-x="373" d="M76 0v222h205v-204l-99 -272h-106l82 254h-82z" />
<glyph unicode="&#x201c;" horiz-adv-x="559" d="M45 929v204l98 272h107l-82 -254h82v-222h-205zM305 929v204l99 272h105l-81 -254h81v-222h-204z" />
<glyph unicode="&#x201d;" horiz-adv-x="559" d="M49 929l82 255h-82v221h205v-203l-98 -273h-107zM309 929l82 255h-82v221h206v-203l-99 -273h-107z" />
<glyph unicode="&#x201e;" horiz-adv-x="559" d="M49 0v222h205v-204l-98 -272h-107l82 254h-82zM309 0v222h206v-204l-99 -272h-107l82 254h-82z" />
<glyph unicode="&#x2022;" horiz-adv-x="588" d="M69 705q0 47 17.5 88t48 72t71.5 48.5t87 17.5q47 0 88 -17.5t72 -48.5t48.5 -72t17.5 -88t-17.5 -88.5t-48.5 -73t-72 -50t-88 -18.5q-46 0 -87 18.5t-71.5 50t-48 73t-17.5 88.5z" />
<glyph unicode="&#x2026;" horiz-adv-x="1679" d="M178 0v222h205v-222h-205zM737 0v222h205v-222h-205zM1294 0v222h205v-222h-205z" />
<glyph unicode="&#x202f;" horiz-adv-x="374" />
<glyph unicode="&#x2039;" horiz-adv-x="559" d="M59 668l289 409h145l-231 -409l231 -410h-145z" />
<glyph unicode="&#x203a;" horiz-adv-x="559" d="M65 258l232 410l-232 409h145l289 -409l-289 -410h-145z" />
<glyph unicode="&#x205f;" horiz-adv-x="468" />
<glyph unicode="&#x20ac;" d="M39 497v133h115q-2 17 -2 35v73q0 17 2 36h-115v133h129q22 125 70 222.5t120.5 164t167.5 101.5t211 35q35 0 69.5 -5t68.5 -16v-145q-28 8 -56 12t-57 4q-74 0 -140.5 -22.5t-121.5 -68t-95.5 -116t-62.5 -166.5h414v-133h-433q-2 -19 -2 -36v-73q0 -18 2 -35h433v-133 h-414q22 -96 62.5 -166t95.5 -115.5t121.5 -68t140.5 -22.5q29 0 57 4t56 12v-145q-34 -9 -68.5 -14.5t-69.5 -5.5q-116 0 -211 34.5t-167.5 101t-120.5 163.5t-70 222h-129z" />
<glyph unicode="&#x2122;" horiz-adv-x="1679" d="M164 1305v100h555v-100h-224v-725h-106v725h-225zM807 578v827h162l172 -662h8l172 662h160v-827h-107v688h-8l-180 -688h-97l-178 688h-8v-688h-96z" />
<glyph unicode="&#xfb01;" horiz-adv-x="840" d="M18 927v150h95v173q0 46 10 90t34.5 79t65.5 56.5t102 21.5q38 0 77 -7.5t65 -17.5v-116h-90q-48 0 -72 -25t-24 -73v-181h186v-150h-186v-927h-168v927h-95zM569 0v1077h168v-1077h-168zM569 1280v201h168v-201h-168z" />
<glyph unicode="&#xfb02;" horiz-adv-x="840" d="M18 927v150h95v173q0 46 10 90t34.5 79t65.5 56.5t102 21.5q38 0 77 -7.5t65 -17.5v-116h-90q-48 0 -72 -25t-24 -73v-181h186v-150h-186v-927h-168v927h-95zM569 0v1481h168v-1481h-168z" />
</font>
</defs>
</svg>
